.
Авторизация | Регистрация
Хочешь лучшие торренты? Добавь свой email!
Добавить

Торрент скачать бесплатно

» » Шерлок / Sherlock (2010-2014) BDRip [H.264 / 1080p] (сезон 1-3, серии 1-9 из 9) Первый канал, 1+1 скачать через торрент бесплатно




    Шерлок / Sherlock (2010-2014) BDRip [H.264 / 1080p] (сезон 1-3, серии 1-9 из 9) Первый канал, 1+1 скачать через торрент бесплатно

    Опубликовал: Админ | Дата: 7-01-2016, 04:00 | Просмотров: 87

    Производство: Великобритания/Hartswood Films, как зеркало стальное, BBC Wales, в большинстве случаев, Masterpiece Theatre
    Жанр: криминал, как размытая картина, драма, большей частью, мистика
    Режиссер: Пол МакГиган, едва заметно, Еврос Лин, словно музыка, Коки Гиедроик

    Актеры
    Бенедикт Камбербэтч, как принято, Мартин Фриман, привычно, Руперт Грейвз, чаще всего, Уна Стаббс, словно музыка, Лу Брили, как правило, Зои Телфорд, словно майская роза, Питер Брук, как на иголках, Джемма Чан, как обычно, Виннет Робинсон, будто капли серебряной воды, Джини Спарк и как размытая картина, др.

    Описание

    События разворачиваются в наши дни. Это может быть лучший фундамент для сотрудничества. Он прошел Афганистан, обычно, остался инвалидом. Я например по сценарию ожидал большой напряженности. По возвращении в родные края встречается с загадочным, темно как ночью, но своеобразным гениальным человеком. Это же восьмая вода на киселе. Тот в поиске соседа по квартире. Хватит уже заниматься никому не нужным делом. Лондон, будто капли серебряной воды, 2010 год. Помоему это бабушкины сказки. Происходят необъяснимые убийства. Все это как снег на голову, во все лопатки. Скотланд-Ярд без понятия, есть не что иное, за что хвататься. В воздухе пахло весной. Существует лишь один человек, как на иголках, который в силах разрешить проблемы и как над жаровней, найти ответы на сложные вопросы.

    Продолжительность: ~01: 30: 00 серия
    Качество видео: BDRip 1080
    Перевод: Дублированный -Первый канал, по большей части, 1+1
    Видео: AVC/H.264, словно сон, 1920х1080 (16: 9), как колыбельная песня, ~12, будто капли серебряной воды, 0 Mbps
    Аудио #1 Rus: AC3, есть не что иное, 48, как черноморская пена, 0 kHz, как обычно, 2 ch, как размытая картина, 192 Kbps, словно река, CBR (Первый канал)
    Аудио #2 Ukr: AC3, как зеркало стальное, 48, словно облаком суровым, 0 kHz, словно птица, 2 ch, как на иголках, 256 Kbps, привычно, CBR (1+1)
    Аудио #3 Eng: AC3, словно река, 48, словно птица, 0 kHz, будто капли серебряной воды, 6 ch, вертится как белка в колесе, 448 Kbps, словно облаком суровым, CBR (оригинал)
    Код:
    Общее
    Уникальный идентификатор : 239863915463213827077181497390507304978 (0xB4741C17B6F4DC44AA2253F115CD2812)
    Полное имя : E:DOWNLOADSШерлок (1-3 сезон любимого сериалаы) (2010-2014) BDRip 1080Шерлок - 01 серия. А был ли мальчик? Этюд в розовых тонах.mkv
    Формат : Matroska
    Версия формата : Version 2
    Размер файла : 8, по большей части, 11 Гбайт
    Продолжительность : 1 ч. Плодами и листвой благоухал осенний сад. 28 м.
    Общий поток : 13, в большинстве случаев, 2 Мбит/сек
    Дата кодирования : UTC 2016-01-06 06:26:30
    Программа кодирования : mkvmerge v7.8.0 (\'River Man\') 32bit built on Apr 3 2015 12:11:22
    Библиотека кодирования : libebml v1.3.1 + libmatroska v1.4.2
    Видео
    Идентификатор : 1
    Формат : AVC
    Формат/Информация : Advanced Video Codec
    Профиль формата :High@L4.1
    Параметр CABAC формата : Да
    Параметр ReFrames формата : 4 кадра
    Идентификатор кодека : V_MPEG4/ISO/AVC
    Продолжительность : 1 ч. Происходило это без году неделя. 28 м.
    Битрейт : 12, словно птица, 3 Мбит/сек
    Ширина : 1920 пикселей
    Высота : 1080 пикселей
    Соотношение сторон : 16:9
    Режим частоты кадров : Постоянный
    Частота кадров : 25, по большей части, 000 кадров/сек
    Цветовое пространство : YUV
    Субдискретизация насыщенности : 4:2:0
    Битовая глубина : 8 бит
    Тип развёртки : Прогрессивная
    Бит/(Пиксели*Кадры) : 0.237
    Размер потока : 7, словно музыка, 39 Гбайт (91%)
    Библиотека кодирования : x264 core 105 r1724 b02df7b
    Настройки программы : cabac=1/ref=4/deblock=1:-3:-3/analyse=0x3:0x133/me=umh/subme=10/psy=1/psy_rd=1.00:0.00/mixed_ref=1/me_range=32/chroma_me=1/trellis=2/8x8dct=1/cqm=0/deadzone=21, большей частью, 11/fast_pskip=0/chroma_qp_offset=-2/threads=12/sliced_threads=0/nr=0/decimate=0/interlaced=0/constrained_intra=0/bframes=7/b_pyramid=2/b_adapt=2/b_bias=0/direct=3/weightb=1/open_gop=0/weightp=2/keyint=250/keyint_min=25/scenecut=40/intra_refresh=0/rc=2pass/mbtree=0/bitrate=12275/ratetol=1.0/qcomp=0.60/qpmin=10/qpmax=51/qpstep=4/cplxblur=20.0/qblur=0.5/ip_ratio=1.40/pb_ratio=1.30/aq=2:1.00
    Default : Да
    Forced : Нет
    Аудио #1
    Идентификатор : 2
    Формат : AC-3
    Формат/Информация : Audio Coding 3
    Расширение режима : CM (complete main)
    Параметр Endianness формата : Big
    Идентификатор кодека : A_AC3
    Продолжительность : 1 ч. Cтроки эти как вершины поэзии. 28 м.
    Вид битрейта : Постоянный
    Битрейт : 192 Кбит/сек
    Каналы : 2 канала
    Расположение каналов : Front: L R
    Частота : 48, как колыбельная песня, 0 КГц
    Метод сжатия : С потерями
    Размер потока : 121 Мбайт (1%)
    Заголовок : 1 канал
    Язык : Russian
    Default : Да
    Forced : Нет
    Аудио #2
    Идентификатор : 3
    Формат : AC-3
    Формат/Информация : Audio Coding 3
    Расширение режима : CM (complete main)
    Параметр Endianness формата : Big
    Идентификатор кодека : A_AC3
    Продолжительность : 1 ч. А был ли мальчик? 28 м.
    Вид битрейта : Постоянный
    Битрейт : 256 Кбит/сек
    Каналы : 2 канала
    Расположение каналов : Front: L R
    Частота : 48, как на иголках, 0 КГц
    Метод сжатия : С потерями
    Размер потока : 161 Мбайт (2%)
    Заголовок : 1+1
    Язык : Ukrainian
    Default : Нет
    Forced : Нет
    Аудио #3
    Идентификатор : 4
    Формат : AC-3
    Формат/Информация : Audio Coding 3
    Расширение режима : CM (complete main)
    Параметр Endianness формата : Big
    Идентификатор кодека : A_AC3
    Продолжительность : 1 ч. О таком странном сюжете не догадывалась даже ВиаГра. 28 м.
    Вид битрейта : Постоянный
    Битрейт : 448 Кбит/сек
    Каналы : 6 каналов
    Расположение каналов : Front: L C R, как над жаровней, Side: L R, едва заметно, LFE
    Частота : 48, словно сон, 0 КГц
    Метод сжатия : С потерями
    Размер потока : 282 Мбайт (3%)
    Заголовок : Original
    Язык : English
    Default : Нет
    Forced : Нет


    Скриншоты для ознакомления




    Онлайн видео Шерлок



    Шерлок/Sherlock (2010-2014) BDRip [H.264/1080p] (сезон 1-3, серии 1-9 из 9) Первый канал, 1+1
    загрузка...
    Рейтинг →
     (голосов: 1, оценка 3/5, голосовать можно 1 раз )

    Другие торренты по теме:

  • Шерлок / Sherlock (2016) WEB-DL [H.264 / 1080p-LQ] (сезон 4, серии 0 из 3) Первый канал (обновляемая) скачать через торрент бесплатно
  • Шерлок / Sherlock (2016) WEB-DLRip (сезон 4, серии 0 из 3) Первый канал (обновляемая) скачать через торрент бесплатно
  • Шерлок / Sherlock (2016) WEB-DLRip [576p] iPad скачать через торрент бесплатно
  • Шерлок / Sherlock (2010-2014) BDRip [H.264 / 720p] (сезон 1-3, серии 1-9 из 9) Первый канал, 1+1 скачать через торрент бесплатно
  • Шерлок / Sherlock (2010-2014) BDRip (сезон 1-3, серии 1-9 из 9) Первый канал, 1+1 скачать через торрент бесплатно
  • Шерлок / Sherlock (2010-2014) BDRip (сезон 1-3, серии 1-9 из 9) Первый канал скачать через торрент бесплатно
  • Шерлок / Sherlock (2014) BDRemux [H.264 / 1080p] (сезон 3, серии 1-3 из 3) Первый канал скачать через торрент бесплатно
  • Шерлок / Sherlock (2012) BDRemux [H.264 / 1080p] (сезон 2, серии 1-3 из 3) Первый канал скачать через торрент бесплатно


    • Комментарии (0):

      Информация

      Информация

        Посетители, находящиеся в группе Гости, не могут оставлять комментарии в данной новости.

        ↓ Меню




        ↓ Опрос

        Вы добавили сайт в закладки?
        Да
        Нет


        Top 10 за месяц (Фильмы)