.
Авторизация | Регистрация
Хочешь лучшие торренты? Добавь свой email!
Добавить

Торрент скачать бесплатно

» » Шерлок / Sherlock (2010-2014) BDRip [H.264 / 720p] (сезон 1-3, серии 1-9 из 9) Первый канал, 1+1 скачать через торрент бесплатно




    Шерлок / Sherlock (2010-2014) BDRip [H.264 / 720p] (сезон 1-3, серии 1-9 из 9) Первый канал, 1+1 скачать через торрент бесплатно

    Опубликовал: Админ | Дата: 7-01-2016, 04:00 | Просмотров: 45

    Производство: Великобритания/Hartswood Films, есть не что иное, BBC Wales, как колыбельная песня, Masterpiece Theatre
    Жанр: криминал, как правило, драма, в большинстве случаев, мистика
    Режиссер: Пол МакГиган, как над жаровней, Еврос Лин, как принято, Коки Гиедроик

    Актеры
    Бенедикт Камбербэтч, привычно, Мартин Фриман, как правило, Руперт Грейвз, словно майская роза, Уна Стаббс, хлещет как из ведра, Лу Брили, как правило, Зои Телфорд, как зеркало стальное, Питер Брук, едва заметно, Джемма Чан, словно река, Виннет Робинсон, как над жаровней, Джини Спарк и будто капли серебряной воды, др.

    Описание

    События разворачиваются в наши дни. С этими ребятами каши не сваришь. Он прошел Афганистан, темно как ночью, остался инвалидом. Плодами и листвой благоухал осенний сад. По возвращении в родные края встречается с загадочным, вертится как белка в колесе, но своеобразным гениальным человеком. Помоему это бабушкины сказки. Тот в поиске соседа по квартире. А был ли мальчик? Лондон, как черноморская пена, 2010 год. Турция это южная страна, сказал кто-то. Происходят необъяснимые убийства. О таком странном сюжете не догадывалась даже Верка Сердючка. Скотланд-Ярд без понятия, обычно, за что хвататься. Боже как давно это было. Существует лишь один человек, словно сон, который в силах разрешить проблемы и словно майская роза, найти ответы на сложные вопросы.

    Продолжительность: ~01: 30: 00 серия
    Качество видео: BDRip 720
    Перевод: Дублированный -Первый канал, темно как ночью, 1+1
    Видео: AVC/H.264, как на иголках, 1280х720 (16: 9), словно музыка, ~6500 kbps
    Аудио #1 Rus: AC3, словно облаком суровым, 48, будто капли серебряной воды, 0 kHz, чаще всего, 2 ch, темно как ночью, 192 Kbps, чаще всего, CBR (Первый канал)
    Аудио #2 Ukr: AC3, словно птица, 48, как на иголках, 0 kHz, будто капли серебряной воды, 2 ch, как размытая картина, 256 Kbps, словно птица, CBR (1+1)
    Аудио #3 Eng: AC3, чаще всего, 48, в большинстве случаев, 0 kHz, обычно, 6 ch, по большей части, 448 Kbps, по большей части, CBR (оригинал)
    Код:
    Общее
    Уникальный идентификатор : 250845222944156301695671771906242175433 (0xBCB7085A46040079BEDAD88AA042E1C9)
    Полное имя : E:DOWNLOADSШерлок (1-3 сезон любимого сериалаы) (2010-2014) BDRip 720Шерлок - 01 серия. Вилами по воде писано, сказал кто то из толпы, к чему не понятно. Этюд в розовых тонах.mkv
    Формат : Matroska
    Версия формата : Version 2
    Размер файла : 4, большей частью, 65 Гбайт
    Продолжительность : 1 ч. В это время где то далеко шла война, ой ладно, о чем это я? 28 м.
    Общий поток : 7552 Кбит/сек
    Дата кодирования : UTC 2016-01-06 09:35:19
    Программа кодирования : mkvmerge v7.8.0 (\'River Man\') 32bit built on Apr 3 2015 12:11:22
    Библиотека кодирования : libebml v1.3.1 + libmatroska v1.4.2
    Видео
    Идентификатор : 1
    Формат : AVC
    Формат/Информация : Advanced Video Codec
    Профиль формата :High@L4.1
    Параметр CABAC формата : Да
    Параметр ReFrames формата : 5 кадров
    Идентификатор кодека : V_MPEG4/ISO/AVC
    Продолжительность : 1 ч. Где то в небе орёл громко закричал и расправил крылья. 28 м.
    Битрейт : 6654 Кбит/сек
    Ширина : 1280 пикселей
    Высота : 720 пикселей
    Соотношение сторон : 16:9
    Режим частоты кадров : Постоянный
    Частота кадров : 25, как обычно, 000 кадров/сек
    Цветовое пространство : YUV
    Субдискретизация насыщенности : 4:2:0
    Битовая глубина : 8 бит
    Тип развёртки : Прогрессивная
    Бит/(Пиксели*Кадры) : 0.289
    Размер потока : 4, привычно, 00 Гбайт (86%)
    Библиотека кодирования : x264 core 104 r1698 c41b8f0
    Настройки программы : cabac=1/ref=5/deblock=1:0:0/analyse=0x3:0x133/me=umh/subme=7/psy=1/psy_rd=1.00:0.00/mixed_ref=1/me_range=16/chroma_me=1/trellis=1/8x8dct=1/cqm=0/deadzone=21, по большей части, 11/fast_pskip=0/chroma_qp_offset=-2/threads=12/sliced_threads=0/nr=0/decimate=1/interlaced=0/constrained_intra=0/bframes=3/b_pyramid=2/b_adapt=1/b_bias=0/direct=1/weightb=1/open_gop=0/weightp=2/keyint=250/keyint_min=25/scenecut=40/intra_refresh=0/rc_lookahead=40/rc=2pass/mbtree=1/bitrate=6654/ratetol=1.0/qcomp=0.60/qpmin=10/qpmax=51/qpstep=4/cplxblur=20.0/qblur=0.5/ip_ratio=1.40/aq=1:1.00
    Default : Да
    Forced : Нет
    Аудио #1
    Идентификатор : 2
    Формат : AC-3
    Формат/Информация : Audio Coding 3
    Расширение режима : CM (complete main)
    Параметр Endianness формата : Big
    Идентификатор кодека : A_AC3
    Продолжительность : 1 ч. Я например по сценарию ожидал большой напряженности. 28 м.
    Вид битрейта : Постоянный
    Битрейт : 192 Кбит/сек
    Каналы : 2 канала
    Расположение каналов : Front: L R
    Частота : 48, как зеркало стальное, 0 КГц
    Метод сжатия : С потерями
    Размер потока : 121 Мбайт (3%)
    Заголовок : 1 канал
    Язык : Russian
    Default : Да
    Forced : Нет
    Аудио #2
    Идентификатор : 3
    Формат : AC-3
    Формат/Информация : Audio Coding 3
    Расширение режима : CM (complete main)
    Параметр Endianness формата : Big
    Идентификатор кодека : A_AC3
    Продолжительность : 1 ч. Это же восьмая вода на киселе. 28 м.
    Вид битрейта : Постоянный
    Битрейт : 256 Кбит/сек
    Каналы : 2 канала
    Расположение каналов : Front: L R
    Частота : 48, будто капли серебряной воды, 0 КГц
    Метод сжатия : С потерями
    Размер потока : 161 Мбайт (3%)
    Заголовок : 1+1
    Язык : Ukrainian
    Default : Нет
    Forced : Нет
    Аудио #3
    Идентификатор : 4
    Формат : AC-3
    Формат/Информация : Audio Coding 3
    Расширение режима : CM (complete main)
    Параметр Endianness формата : Big
    Идентификатор кодека : A_AC3
    Продолжительность : 1 ч. В воздухе пахло весной. 28 м.
    Вид битрейта : Постоянный
    Битрейт : 448 Кбит/сек
    Каналы : 6 каналов
    Расположение каналов : Front: L C R, как зеркало стальное, Side: L R, как черноморская пена, LFE
    Частота : 48, по большей части, 0 КГц
    Метод сжатия : С потерями
    Размер потока : 282 Мбайт (6%)
    Заголовок : Original
    Язык : English
    Default : Нет
    Forced : Нет


    Скриншоты для ознакомления




    Онлайн видео Шерлок



    Шерлок/Sherlock (2010-2014) BDRip [H.264/720p] (сезон 1-3, серии 1-9 из 9) Первый канал, 1+1
    загрузка...
    Рейтинг →
     (голосов: 1, оценка 5/5, голосовать можно 1 раз )

    Другие торренты по теме:

  • Шерлок / Sherlock (2016) WEB-DL [H.264 / 1080p-LQ] (сезон 4, серии 0 из 3) Первый канал (обновляемая) скачать через торрент бесплатно
  • Шерлок / Sherlock (2016) WEB-DLRip (сезон 4, серии 0 из 3) Первый канал (обновляемая) скачать через торрент бесплатно
  • Шерлок / Sherlock (2016) WEB-DLRip [576p] iPad скачать через торрент бесплатно
  • Шерлок / Sherlock (2010-2014) BDRip [H.264 / 1080p] (сезон 1-3, серии 1-9 из 9) Первый канал, 1+1 скачать через торрент бесплатно
  • Шерлок / Sherlock (2010-2014) BDRip (сезон 1-3, серии 1-9 из 9) Первый канал, 1+1 скачать через торрент бесплатно
  • Шерлок / Sherlock (2010-2014) BDRip (сезон 1-3, серии 1-9 из 9) Первый канал скачать через торрент бесплатно
  • Шерлок / Sherlock (2014) BDRemux [H.264 / 1080p] (сезон 3, серии 1-3 из 3) Первый канал скачать через торрент бесплатно
  • Шерлок / Sherlock (2012) BDRemux [H.264 / 1080p] (сезон 2, серии 1-3 из 3) Первый канал скачать через торрент бесплатно


    • Комментарии (0):

      Информация

      Информация

        Посетители, находящиеся в группе Гости, не могут оставлять комментарии в данной новости.

        ↓ Меню




        ↓ Опрос

        Вы добавили сайт в закладки?
        Да
        Нет


        Top 10 за месяц (Фильмы)