.
Авторизация | Регистрация
Хочешь лучшие торренты? Добавь свой email!
Добавить

Торрент скачать бесплатно

» » Сердца трёх (1992) DVD5 + DVD9 скачать через торрент бесплатно




    Сердца трёх (1992) DVD5 + DVD9 скачать через торрент бесплатно

    Опубликовал: Админ | Дата: 7-01-2016, 04:00 | Просмотров: 66

    Производство: Россия, Украина/Киностудия им. Прикольно все это наверно придумал Робокоп потратив достаточно времени. Довженко, ЯлтаФильм Студио
    Жанр: приключения
    Режиссер: Владимир Попков

    Актеры
    Сергей Жигунов, Алёна Хмельницкая, Владимир Шевельков, Пирет Мянгел, Дмитрий Харатьян, Рафаэль Котанджян, Альгимантас Масюлис, Владимир Сошальский, Игорь Кваша и др.

    Описание фильма

    Захватывающая приключенческая лента о романтической любви.
    В основе фильма лежит единственный сценарий Джека Лондона, написанный им для Голливуда в лучших традициях фабрики грез. Здесь есть все, что привлекает зрителей всех возрастов и вкусов. Благородные разбойники, ищущие острых ощущений миллионеры, прекрасные дамы, одержимые кладоискатели, кровавые злодеи, продажные полицейские, погони, драки, интриги, ревность, пиратское золото, настоящая дружба и удивительная любовь.

    Продолжительность: 04: 19: 21
    Качество видео: DVD5/DVD9
    Вид субтитров: вшитые отключаемые
    Язык субтитров: русский
    Тех данные 1-3 серии диск DVD 9:
    Видео: MPEG 2, 720x576@768x576 (4: 3), 25.000 fps, 6 000 Kbps (0.579 bit/pixel)
    Аудио #1: AC-3, 48.0 KHz, 6 ch, 448 Kbps, CBR Русский
    Аудио #2: AC-3, 48.0 KHz, 2 ch, 192 Kbps, CBR Русский
    Тех. данные 4-5 серии DVD 5:
    Видео: MPEG 2, 720x576@768x576 (4: 3), 25.000 fps, 5 000 Kbps (0.482 bit/pixel)
    Аудио #1: AC-3, 48.0 KHz, 6 ch, 448 Kbps, CBR Русский
    Аудио #2: AC-3, 48.0 KHz, 2 ch, 192 Kbps, CBR Русский
    Код:
    Видео
    Идентификатор : 224 (0xE0)
    Формат : MPEG Video
    Версия формата : Version 2
    Профиль формата : Main@Main
    Параметр BVOP формата : Да
    Параметр матрицы формата : Выборочная
    Параметр GOP формата : M=3, N=15
    Продолжительность : 21 м.
    Вид битрейта : Переменный
    Битрейт : 6000 Кбит/сек
    Ширина : 720 пикселей
    Высота : 576 пикселей
    Соотношение сторон : 4:3
    Частота кадров : 25, 000 кадров/сек
    Стандарт вещания : PAL
    Цветовое пространство : YUV
    Субдискретизация насыщенности : 4:2:0
    Битовая глубина : 8 бит
    Тип развёртки : Чересстрочная
    Порядок развёртки : Верхнее поле первое
    Метод сжатия : С потерями
    Бит/(Пиксели*Кадры) : 0.579
    Размер потока : 906 Мбайт (89%)
    Аудио #1
    Идентификатор : 189 (0xBD)-128 (0x80)
    Формат : AC-3
    Формат/Информация : Audio Coding 3
    Расширение режима : CM (complete main)
    Параметр Endianness формата : Big
    Режим смешивания : DVD-Video
    Продолжительность : 21 м.
    Вид битрейта : Постоянный
    Битрейт : 448 Кбит/сек
    Каналы : 6 каналов
    Расположение каналов : Front: L C R, Side: L R, LFE
    Частота : 48, 0 КГц
    Битовая глубина : 16 бит
    Метод сжатия : С потерями
    Задержка видео : -80 мс.
    Размер потока : 67, 8 Мбайт (7%)
    Аудио #2
    Идентификатор : 189 (0xBD)-129 (0x81)
    Формат : AC-3
    Формат/Информация : Audio Coding 3
    Расширение режима : CM (complete main)
    Параметр Endianness формата : Big
    Режим смешивания : DVD-Video
    Продолжительность : 21 м.
    Вид битрейта : Постоянный
    Битрейт : 192 Кбит/сек
    Каналы : 2 канала
    Расположение каналов : Front: L R
    Частота : 48, 0 КГц
    Битовая глубина : 16 бит
    Метод сжатия : С потерями
    Задержка видео : -80 мс.
    Размер потока : 29, 1 Мбайт (3%)
    Меню
    Код:
    Видео
    Идентификатор : 224 (0xE0)
    Формат : MPEG Video
    Версия формата : Version 2
    Профиль формата : Main@Main
    Параметр BVOP формата : Да
    Параметр матрицы формата : Выборочная
    Параметр GOP формата : M=3, N=15
    Продолжительность : 24 м.
    Вид битрейта : Переменный
    Битрейт : 5000 Кбит/сек
    Ширина : 720 пикселей
    Высота : 576 пикселей
    Соотношение сторон : 4:3
    Частота кадров : 25, 000 кадров/сек
    Стандарт вещания : PAL
    Цветовое пространство : YUV
    Субдискретизация насыщенности : 4:2:0
    Битовая глубина : 8 бит
    Тип развёртки : Чересстрочная
    Порядок развёртки : Верхнее поле первое
    Метод сжатия : С потерями
    Бит/(Пиксели*Кадры) : 0.482
    Размер потока : 889 Мбайт (87%)
    Аудио #1
    Идентификатор : 189 (0xBD)-128 (0x80)
    Формат : AC-3
    Формат/Информация : Audio Coding 3
    Расширение режима : CM (complete main)
    Параметр Endianness формата : Big
    Режим смешивания : DVD-Video
    Продолжительность : 24 м.
    Вид битрейта : Постоянный
    Битрейт : 448 Кбит/сек
    Каналы : 6 каналов
    Расположение каналов : Front: L C R, Side: L R, LFE
    Частота : 48, 0 КГц
    Битовая глубина : 16 бит
    Метод сжатия : С потерями
    Задержка видео : -80 мс.
    Размер потока : 79, 7 Мбайт (8%)
    Аудио #2
    Идентификатор : 189 (0xBD)-129 (0x81)
    Формат : AC-3
    Формат/Информация : Audio Coding 3
    Расширение режима : CM (complete main)
    Параметр Endianness формата : Big
    Режим смешивания : DVD-Video
    Продолжительность : 24 м.
    Вид битрейта : Постоянный
    Битрейт : 192 Кбит/сек
    Каналы : 2 канала
    Расположение каналов : Front: L R
    Частота : 48, 0 КГц
    Битовая глубина : 16 бит
    Метод сжатия : С потерями
    Задержка видео : -80 мс.
    Размер потока : 34, 2 Мбайт (3%)
    Текст
    Идентификатор : 189 (0xBD)-32 (0x20)
    Формат : RLE
    Формат/Информация : Run-length encoding
    Режим смешивания : DVD-Video
    Меню


    Скриншоты для ознакомления




    Онлайн видео Бесстыдники



    Сердца трёх (1992) DVD5 + DVD9
    загрузка...
    Рейтинг →
     (голосов: 1, оценка 5/5, голосовать можно 1 раз )

    Другие торренты по теме:

  • Сердца трёх (1992) DVD9


    • Комментарии (0):

      Информация

      Информация

        Посетители, находящиеся в группе Гости, не могут оставлять комментарии в данной новости.

        ↓ Меню




        ↓ Опрос

        Вы добавили сайт в закладки?
        Да
        Нет


        Top 10 за месяц (Фильмы)