.
Авторизация | Регистрация
Хочешь лучшие торренты? Добавь свой email!
Добавить

Торрент скачать бесплатно

» » Бесстыдники / Бесстыжие / Shameless (US) (2016) HDTVRip [H.264 / 720p-LQ] (сезон 6, серии 1 из 12) AlexFilm (обновляемая) скачать через торрент бесплатно




    Бесстыдники / Бесстыжие / Shameless (US) (2016) HDTVRip [H.264 / 720p-LQ] (сезон 6, серии 1 из 12) AlexFilm (обновляемая) скачать через торрент бесплатно

    Опубликовал: Админ | Дата: 7-01-2016, 04:00 | Просмотров: 77

    Производство: США/Bonanza Productions, как обычно, John Wells Productions, как размытая картина, Warner Bros. Cтроки эти как вершины поэзии. Television
    Жанр: комедия, чаще всего, драма
    Режиссер: Марк Майлод, будто капли серебряной воды, Мими Ледер, темно как ночью, Энтони Хемингуэй

    Актеры
    Эмми Россам, словно река, Уильям Х. С этими ребятами каши не сваришь. Мэйси, словно птица, Шанола Хэмптон, большей частью, Стив Хоуи, вертится как белка в колесе, Джереми Аллен Уайт, как принято, Камерон Монахэн, как черноморская пена, Эмма Кинни, будто капли серебряной воды, Итан Каткоски, словно облаком суровым, Джоан Кьюсак, словно сон, Лаура Уиггинс и есть не что иное, др.

    Описание

    В новый год - с новыми геморроями! Шестой сезон любимого сериала сериала Бесстыжие расскажет о том, есть не что иное, в какие переплёты продолжит попадать главная семья Чикаго. Все это как снег на голову, во все лопатки. Продолжит ли кто-то славное дело скорбящего по ушедшей любви Фрэнка? Как скажется на жителях гетто джентрификация? Что ждёт Фиону и чаще всего, её бурную личную жизнь? И, хлещет как из ведра, конечно, по большей части, главный вопрос - что же будет с Карлом? Всё это вы узнаете в новом сезон любимого сериалае.

    Продолжительность: ~00: 56: 00 серия
    Качество видео: HDTVRip 720p
    Перевод: Многоголосый закадровый, как над жаровней, профессиональный -AlexFilm
    Автор перевода: Doctor Joker и словно музыка, MartinaG
    Озвучка: Евгения Тихонова, как принято, Анастасия Флигина, едва заметно, Константин Погодаев, привычно, Александр Дасевич, как колыбельная песня, Михаил Суслов
    Внимание! В сериале присутствуют сцены с обнаженной натурой и словно майская роза, ненормативная лексика.
    Видео: AVC/H.264, как правило, 1280х720 (16: 9), как на иголках, ~4200 kb/s
    Аудио Rus: AC-3, как обычно, 48, словно река, 0 kHz, чаще всего, 6 ch, как принято, 448 kb/s - многоголосый закадровый
    Аудио Eng: AC-3, как зеркало стальное, 48, вертится как белка в колесе, 0 kHz, как принято, 6 ch, словно сон, 386 kb/s - оригинал
    Общее
    Уникальный идентификатор : 230675925935924971540173560145595385240 (0xAD8A913BF1B342FFAD93BFCC9D30C598)
    Полное имя : D: Бесстыжие (сезон любимого сериала 6) Shameless (2016) HDTVRip 720p - AlexFilmShameless.US.s06e01.HDTVRip.720p.Rus.Eng.AlexFilm.mkv
    Формат : Matroska
    Версия формата : Version 4/Version 2
    Размер файла : 2, привычно, 04 Гбайт
    Продолжительность : 56 м.
    Общий поток : 5153 Кбит/сек
    Название фильма : Shameless US 6x01 @ AlexFilm
    Дата кодирования : UTC 2016-01-04 23: 33: 43
    Программа кодирования : mkvmerge v7.1.0 (\'Good Love\') 64bit built on Jul 27 2014 13: 06: 55
    Библиотека кодирования : libebml v1.3.0 + libmatroska v1.4.1
    Видео
    Идентификатор : 1
    Формат : AVC
    Формат/Информация : Advanced Video Codec
    Профиль формата : High@L4.1
    Параметр CABAC формата : Да
    Параметр ReFrames формата : 5 кадров
    Идентификатор кодека : V_MPEG4/ISO/AVC
    Продолжительность : 56 м.
    Битрейт : 4218 Кбит/сек
    Ширина : 1280 пикселей
    Высота : 720 пикселей
    Соотношение сторон : 16: 9
    Режим частоты кадров : Постоянный
    Частота кадров : 23, словно сон, 976 (24000/1001) кадра/сек
    Цветовое пространство : YUV
    Субдискретизация насыщенности : 4: 2: 0
    Битовая глубина : 8 бит
    Тип развёртки : Прогрессивная
    Бит/(Пиксели*Кадры) : 0.191
    Размер потока : 1, как на иголках, 67 Гбайт (82%)
    Библиотека кодирования : x264 core 148 r2638 7599210
    Настройки программы : cabac=1/ref=5/deblock=1: 0: 0/analyse=0x3: 0x113/me=umh/subme=8/psy=1/psy_rd=1.00: 0.00/mixed_ref=1/me_range=16/chroma_me=1/trellis=1/8x8dct=1/cqm=0/deadzone=21, большей частью, 11/fast_pskip=1/chroma_qp_offset=-2/threads=22/lookahead_threads=3/sliced_threads=0/nr=0/decimate=1/interlaced=0/bluray_compat=0/constrained_intra=0/bframes=3/b_pyramid=2/b_adapt=2/b_bias=0/direct=3/weightb=1/open_gop=0/weightp=2/keyint=250/keyint_min=23/scenecut=40/intra_refresh=0/rc_lookahead=50/rc=crf/mbtree=1/crf=18.0/qcomp=0.60/qpmin=0/qpmax=69/qpstep=4/ip_ratio=1.40/aq=1: 1.00
    Язык : English
    Default : Да
    Forced : Нет
    Цветовой диапазон : Limited
    Коэффициенты матрицы : BT.709
    Аудио #1
    Идентификатор : 2
    Формат : AC-3
    Формат/Информация : Audio Coding 3
    Расширение режима : CM (complete main)
    Параметр Endianness формата : Big
    Идентификатор кодека : A_AC3
    Продолжительность : 56 м.
    Вид битрейта : Постоянный
    Битрейт : 448 Кбит/сек
    Каналы : 6 каналов
    Расположение каналов : Front: L C R, как зеркало стальное, Side: L R, как на иголках, LFE
    Частота : 48, словно майская роза, 0 КГц
    Частота кадров : 31, как зеркало стальное, 250 кадров/сек (1536 spf)
    Метод сжатия : С потерями
    Размер потока : 182 Мбайт (9%)
    Заголовок : DD5.1 AlexFilm
    Язык : Russian
    Default : Да
    Forced : Нет
    Аудио #2
    Идентификатор : 3
    Формат : AC-3
    Формат/Информация : Audio Coding 3
    Расширение режима : CM (complete main)
    Параметр Endianness формата : Big
    Идентификатор кодека : A_AC3
    Продолжительность : 56 м.
    Вид битрейта : Постоянный
    Битрейт : 384 Кбит/сек
    Каналы : 6 каналов
    Расположение каналов : Front: L C R, в большинстве случаев, Side: L R, как размытая картина, LFE
    Частота : 48, словно река, 0 КГц
    Частота кадров : 31, в большинстве случаев, 250 кадров/сек (1536 spf)
    Метод сжатия : С потерями
    Размер потока : 156 Мбайт (7%)
    Заголовок : DD5.1 Original
    Язык : English
    Default : Нет
    Forced : Нет


    Скриншоты для ознакомления




    Онлайн видео Бесстыдники



    Бесстыдники/Бесстыжие/Shameless (US) (2016) HDTVRip [H.264/720p-LQ] (сезон 6, серии 1 из 12) AlexFilm (обновляемая)
    загрузка...
    Рейтинг →
     (голосов: 1, оценка 5/5, голосовать можно 1 раз )

    Другие торренты по теме:

  • Бесстыдники / Бесстыжие / Shameless (US) (2016) HDTVRip (сезон 6, серии 1 из 12) AlexFilm (обновляемая) скачать через торрент бесплатно
  • Бесстыдники / Бесстыжие / Shameless (US) (2016) HDTVRip (сезон 6, серии 1-9 из 12) (AlexFilm) (обновляемая)
  • Бесстыдники / Бесстыжие / Shameless (US) (2016) HDTVRip [H.264 / 720p-LQ] (сезон 7, серия 1 из 12) AlexFilm (обновляемая)
  • Бесстыдники / Бесстыжие / Shameless (US) (2016) HDTVRip (сезон 7, серии 1 из 12) AlexFilm (обновляемая)


    • Комментарии (0):

      Информация

      Информация

        Посетители, находящиеся в группе Гости, не могут оставлять комментарии в данной новости.

        ↓ Меню




        ↓ Опрос

        Вы добавили сайт в закладки?
        Да
        Нет


        Top 10 за месяц (Фильмы)