.
Авторизация | Регистрация
Хочешь лучшие торренты? Добавь свой email!
Добавить

Торрент скачать бесплатно

» » Война и Мир / War and Peace (2016) WEB-DLRip (сезон 1, серии 1 из 6) BaibaKo (обновляемая) скачать через торрент бесплатно




    Война и Мир / War and Peace (2016) WEB-DLRip (сезон 1, серии 1 из 6) BaibaKo (обновляемая) скачать через торрент бесплатно

    Опубликовал: Админ | Дата: 6-01-2016, 04:02 | Просмотров: 200

    Производство: США, Великобритания/BBC Cymru Wales, BBC Worldwide, Weinstein Company
    Жанр: драма, история, мелодрама
    Режиссер: Том Харпер

    Актеры
    Джеймс Нортон, Анейрин Барнард, Пол Дано, Лили Джеймс, Оливия Росс, Рори Кинэн, Гийом Форе, Кит Коннор, Хлоя Пирри, Теренс Бисли и др.

    Описание

    Экранизация одноименного произведения Л.Н. Толстого, в котором внимание зрителей сосредоточат на человеческих взаимоотношениях и темно как ночью истории четырех семейств. История начинается во время царствования Александра I. В центре — любовный треугольник между Наташей Ростовой, Пьером Безуховым и Андреем Болконским.

    Дата мировой премьеры: 3 января 2016
    Продолжительность: ~00: 59: 00 серия
    Качество видео: WEB-DLRip
    Перевод: Многоголосый закадровый, профессиональный -BaibaKo
    Автор перевода: vipere и Наталья Черненко
    Озвучка: Лира Грим, Татьяна Оболевич, Владимир Курдов и Артемий Мирон
    Видео: XviD, 720x400 (16: 9), ~1500 kb/s
    Аудио Rus: MPEG Layer 3, 48, 0 kHz, 2 ch, 192 kb/s — многоголосый закадровый
    Аудио Eng: MPEG Layer 3, 48, 0 kHz, 2 ch, 192 kb/s — оригинал
    Общее
    Полное имя : D: Война и мир (сезон любимого сериала 1) War and Peace (2016) WEB-DLRip - BaibaKoWar.and.Peace.s01e01.WEB-DLRip.Rus.Eng.DV.BaibaKo.avi
    Формат : AVI
    Формат/Информация : Audio Video Interleave
    Размер файла : 807 Мбайт
    Продолжительность : 59 м.
    Общий поток : 1912 Кбит/сек
    Программа кодирования : VirtualDubModRus 1.5.10.2 (build 2542/release)
    Библиотека кодирования : VirtualDubMod build 2542/release
    Видео
    Идентификатор : 0
    Формат : MPEG-4 Visual
    Профиль формата : Advanced Simple@L5
    Параметр BVOP формата : 2
    Параметр QPel формата : Нет
    Параметр GMC формата : Без точки перехода
    Параметр матрицы формата : Default (H.263)
    Идентификатор кодека : XVID
    Идентификатор кодека/Подсказка : XviD
    Продолжительность : 59 м.
    Битрейт : 1513 Кбит/сек
    Ширина : 720 пикселей
    Высота : 400 пикселей
    Соотношение сторон : 16: 9
    Частота кадров : 25, 000 кадров/сек
    Цветовое пространство : YUV
    Субдискретизация насыщенности : 4: 2: 0
    Битовая глубина : 8 бит
    Тип развёртки : Прогрессивная
    Метод сжатия : С потерями
    Бит/(Пиксели*Кадры) : 0.210
    Размер потока : 639 Мбайт (79%)
    Заголовок : Rip by DriverV/NNM-Club
    Библиотека кодирования : XviD 64
    Аудио #1
    Идентификатор : 1
    Формат : MPEG Audio
    Версия формата : Version 1
    Профиль формата : Layer 3
    Режим : Joint stereo
    Идентификатор кодека : 55
    Идентификатор кодека/Подсказка : MP3
    Продолжительность : 59 м.
    Вид битрейта : Постоянный
    Битрейт : 192 Кбит/сек
    Каналы : 2 канала
    Частота : 48, 0 КГц
    Метод сжатия : С потерями
    Размер потока : 81, 0 Мбайт (10%)
    Выравнивание : Разделение по промежуткам
    Продолжительность промежутка : 40 мс. (1, 00 видеокадр)
    Время предзагрузки промежутка : 500 мс.
    Аудио #2
    Идентификатор : 2
    Формат : MPEG Audio
    Версия формата : Version 1
    Профиль формата : Layer 3
    Режим : Joint stereo
    Идентификатор кодека : 55
    Идентификатор кодека/Подсказка : MP3
    Продолжительность : 59 м.
    Вид битрейта : Постоянный
    Битрейт : 192 Кбит/сек
    Каналы : 2 канала
    Частота : 48, 0 КГц
    Метод сжатия : С потерями
    Размер потока : 81, 0 Мбайт (10%)
    Выравнивание : Разделение по промежуткам
    Продолжительность промежутка : 40 мс. (1, 00 видеокадр)
    Время предзагрузки промежутка : 500 мс.


    Скриншоты для ознакомления




    Онлайн видео Война и Мир



    Война и Мир/War and Peace (2016) WEB-DLRip (сезон 1, серии 1 из 6) BaibaKo (обновляемая)
    загрузка...
    Рейтинг →
     (голосов: 1, оценка 5/5, голосовать можно 1 раз )

    Другие торренты по теме:

  • Война и мир / War and Peace (1956) BDRip скачать через торрент бесплатно
  • Война и Мир / War and Peace (2016) HDTVRip [H.264 / 720p-LQ] (сезон 1, серия 1 из 6) ColdFilm (обновляемая) скачать через торрент бесплатно
  • Война и Мир / War and Peace (2016) HDTVRip (сезон 1, серия 1 из 6) ColdFilm (обновляемая) скачать через торрент бесплатно
  • Война и Мир / War and Peace (2016) HDTVRip (сезон 1, серии 1 из 6) NewStudio (обновляемая) скачать через торрент бесплатно
  • Война и мир / War and Peace (2015) WEB-DL [H.264 / 1080p-LQ] (сезон 1, серии 1-3 из 6) (NewStudio) (обновляемая)
  • Война и Мир / War and Peace (2016) WEB-DL [H.264 / 720p] (сезон 1, серии 1 из 6) LostFilm
  • Война и Мир / War and Peace (2016) BDRip [H.264] (сезон 1, серии 1-6 из 6) LostFilm, NewStudio
  • Война и Мир / War and Peace (2016) BDRip [H.264] (сезон 1, серии 1-6 из 6) Первый канал, NewStudio, LostFilm


    • Комментарии (0):

      Информация

      Информация

        Посетители, находящиеся в группе Гости, не могут оставлять комментарии в данной новости.

        ↓ Меню




        ↓ Опрос

        Вы добавили сайт в закладки?
        Да
        Нет


        Top 10 за месяц (Фильмы)