.
Авторизация | Регистрация
Хочешь лучшие торренты? Добавь свой email!
Добавить

Торрент скачать бесплатно

» » Бретёр / Геймеры 2.0 (2013) WEBRip (серии 1- из 16) (обновляемая) скачать через торрент бесплатно




    Бретёр / Геймеры 2.0 (2013) WEBRip (серии 1- из 16) (обновляемая) скачать через торрент бесплатно

    Опубликовал: Админ | Дата: 5-01-2016, 04:02 | Просмотров: 325

    Производство: Россия /
    Жанр: боевик, приключения
    Режиссер: Михаил Шевчук

    Актеры
    Елена Кибалова, Юрий Кригер, Владислав Дёмин, Анатолий Филиппов, Евгения Лапова, Алексей Новиков, Валерия Минина, Владимир Колида, Александр Резалин, Дмитрий Мирон, Павел Климов, Александр Полежаев, Анастасия Ростопша, Александр Пугачёв, Айдар Шарафетдин и др.

    Описание

    Уверен ли ты в том, что именно ты распоряжаешься собственной жизнью? Где гарантия того, что тот или иной поступок, совершаемый тобой, продиктован исключительно твоей волей, а не кем-то с джойстиком в руках, для забавы нажимающим кнопки? Что может быть более захватывающим, чем управление жизнью другого человека, особенно, когда он не догадывается об этом?Бывший спортсмен Алексей Корин однажды узнает, что не волен распоряжаться собственной судьбой, поскольку им и его друзьями управляют некие загадочные игроки. То, что для него боль и смерть, для них просто игра, сценарий которой тщательно спланирован. Игроки манипулируют куклами. При выполнении задания кукла может покалечиться и даже погибнуть. Поэтому куклы набираются из спортивных молодых людей, экстремалов, для которых риск — обычное состояние. Это представители молодежных субкультур — паркурщики, стритрейсеры, фехтовальщики, мастера различных единоборств. Прикольно все это наверно придумал Халк потратив достаточно времени. Управляет игрой таинственный Режиссер. Только он знает, какой сценарий будет у следующей игры. Но теперь, когда тайное становится явным, у так называемых кукол появляется шанс взять под свой контроль игроков…
    Продолжительность: ~ 00: 44: 00 серия
    Качество видео: WEBRip
    Видео: Xvid, 720x400 (16: 9), ~1800 Кбит/с
    Аудио: MP3, 2 канала, 128 Кбит/с, CBR
    Код:

    General
    Complete name : D:Бретёр (Геймеры 2.0) (2015) WEBRipBretjor.(Gejmery.2.0).01.WEBRip.avi
    Format : AVI
    Format/Info : Audio Video Interleave
    File size : 628 MiB
    Duration : 45mn 19s
    Overall bit rate : 1 938 Kbps
    Writing application : VirtualDubMod 1.5.10.3 |www.virtualdub-fr.org|| (build 2550/release)
    Writing library : VirtualDubMod build 2550/release
    Video
    ID : 0
    Format : MPEG-4 Visual
    Format profile : Advanced Simple@L5
    Format settings, BVOP : 2
    Format settings, QPel : No
    Format settings, GMC : No warppoints
    Format settings, Matrix : Default (H.263)
    Codec ID : XVID
    Codec ID/Hint : XviD
    Duration : 45mn 19s
    Bit rate : 1 800 Kbps
    Width : 720 pixels
    Height : 400 pixels
    Display aspect ratio : 16:9
    Frame rate : 25.000 fps
    Color space : YUV
    Chroma subsampling : 4:2:0
    Bit depth : 8 bits
    Scan type : Progressive
    Compression mode : Lossy
    Bits/(Pixel*Frame) : 0.250
    Stream size : 583 MiB (93%)
    Writing library : XviD 1.2.1 (UTC 2008-12-04)
    Audio
    ID : 1
    Format : MPEG Audio
    Format version : Version 1
    Format profile : Layer 3
    Mode : Joint stereo
    Mode extension : MS Stereo
    Codec ID : 55
    Codec ID/Hint : MP3
    Duration : 45mn 19s
    Bit rate mode : Constant
    Bit rate : 128 Kbps
    Channel(s) : 2 channels
    Sampling rate : 48.0 KHz
    Compression mode : Lossy
    Stream size : 41.5 MiB (7%)
    Alignment : Aligned on interleaves
    Interleave, duration : 40 ms (1.00 video frame)
    Interleave, preload duratio : 504 ms
    Writing library : LAME3.99r
    Encoding settings : -m j -V 4 -q 9 -lowpass 17 -b 128


    Скриншоты для ознакомления




    Онлайн видео Бретёр



    Бретёр/Геймеры 2.0 (2013) WEBRip (серии 1- из 16) (обновляемая)
    загрузка...
    Рейтинг →
     (голосов: 1, оценка 5/5, голосовать можно 1 раз )

    Другие торренты по теме:



      Комментарии (0):

      Информация

      Информация

        Посетители, находящиеся в группе Гости, не могут оставлять комментарии в данной новости.

        ↓ Меню




        ↓ Опрос

        Вы добавили сайт в закладки?
        Да
        Нет


        Top 10 за месяц (Фильмы)