.
Авторизация | Регистрация
Хочешь лучшие торренты? Добавь свой email!
Добавить

Торрент скачать бесплатно

» » Шерлок / Sherlock (2016) WEB-DLRip (сезон 4, серии 0 из 3) Первый канал (обновляемая) скачать через торрент бесплатно




    Шерлок / Sherlock (2016) WEB-DLRip (сезон 4, серии 0 из 3) Первый канал (обновляемая) скачать через торрент бесплатно

    Опубликовал: Админ | Дата: 5-01-2016, 04:02 | Просмотров: 92

    Производство: Великобритания, США/Hartswood Films, BBC Wales, Masterpiece Theatre
    Жанр: криминал, драма, мистика
    Режиссер: Дуглас МакКиннон

    Актеры
    Бенедикт Камбербэтч, Мартин Фриман, Уна Стаббс, Руперт Грейвз, Лу Брили, Марк Гейтисс, Эндрю Скотт, Джонатан Арис, Аманда Аббингтон, Винетт Робинсон и др.

    Описание

    Главный герой сериала экстравагантный и неординарный частный детектив Шерлок Холмс вместе со своим другом доктором Джоном Ватсоном расследует преступления, совершенные в современном Лондоне и его окрестностях.
    В новом сезон любимого сериалае главным героям предстоит разгадать причину возвращения главного врага Шерлока – гениального злодея Мориарти. Для Холмса этот вопрос – дело чести, ведь Мориарти – первый преступник, которому удалось превзойти Шерлока. Более того – Мориарти сделал это изящно и удивительно легко…

    Продолжительность: ~01: 30: 00 серия
    Качество видео: WEB-DLRip
    Перевод: Дублированный -Первый канал
    Видео: XviD, 720x400 (16: 9), ~1500 kb/s
    Аудио Rus: MPEG Layer 3, 48, 0 kHz, 2 ch, 128 kb/s — дублированный
    Аудио Eng: MPEG Layer 3, 48, 0 kHz, 2 ch, 128 kb/s — оригинал
    Общее
    Полное имя : D: Шерлок (сезон любимого сериала 4) WEB-DLRip - LostFilmSherlock.S04E00.WEB-DLRip.Rus.End.DV.LostFilm.avi
    Формат : AVI
    Формат/Информация : Audio Video Interleave
    Размер файла : 1, 11 Гбайт
    Продолжительность : 1 ч. 29 м.
    Общий поток : 1786 Кбит/сек
    Программа кодирования : VirtualDubModRus 1.5.10.2 (build 2542/release)
    Библиотека кодирования : VirtualDubMod build 2542/release
    Видео
    Идентификатор : 0
    Формат : MPEG-4 Visual
    Профиль формата : Advanced Simple@L5
    Параметр BVOP формата : 2
    Параметр QPel формата : Нет
    Параметр GMC формата : Без точки перехода
    Параметр матрицы формата : Default (H.263)
    Идентификатор кодека : XVID
    Идентификатор кодека/Подсказка : XviD
    Продолжительность : 1 ч. 29 м.
    Битрейт : 1516 Кбит/сек
    Ширина : 720 пикселей
    Высота : 400 пикселей
    Соотношение сторон : 16: 9
    Частота кадров : 25, 000 кадров/сек
    Цветовое пространство : YUV
    Субдискретизация насыщенности : 4: 2: 0
    Битовая глубина : 8 бит
    Тип развёртки : Прогрессивная
    Метод сжатия : С потерями
    Бит/(Пиксели*Кадры) : 0.211
    Размер потока : 968 Мбайт (85%)
    Заголовок : Rip by DriverV/NNM-Club
    Библиотека кодирования : XviD 64
    Аудио #1
    Идентификатор : 1
    Формат : MPEG Audio
    Версия формата : Version 1
    Профиль формата : Layer 3
    Режим : Joint stereo
    Расширение режима : MS Stereo
    Идентификатор кодека : 55
    Идентификатор кодека/Подсказка : MP3
    Продолжительность : 1 ч. 29 м.
    Вид битрейта : Постоянный
    Битрейт : 128 Кбит/сек
    Каналы : 2 канала
    Частота : 48, 0 КГц
    Метод сжатия : С потерями
    Задержка видео : 1 с. 100 мс.
    Размер потока : 81, 8 Мбайт (7%)
    Выравнивание : Разделение по промежуткам
    Продолжительность промежутка : 40 мс. (1, 00 видеокадр)
    Время предзагрузки промежутка : 500 мс.
    Аудио #2
    Идентификатор : 2
    Формат : MPEG Audio
    Версия формата : Version 1
    Профиль формата : Layer 3
    Режим : Joint stereo
    Расширение режима : MS Stereo
    Идентификатор кодека : 55
    Идентификатор кодека/Подсказка : MP3
    Продолжительность : 1 ч. 29 м.
    Вид битрейта : Постоянный
    Битрейт : 128 Кбит/сек
    Каналы : 2 канала
    Частота : 48, 0 КГц
    Метод сжатия : С потерями
    Размер потока : 81, 8 Мбайт (7%)
    Выравнивание : Разделение по промежуткам
    Продолжительность промежутка : 40 мс. Вашими молитвами, сказал кто то из толпы, к чему не понятно. (1, 00 видеокадр)
    Время предзагрузки промежутка : 500 мс.


    Скриншоты для ознакомления




    Онлайн видео Шерлок



    Шерлок/Sherlock (2016) WEB-DLRip (сезон 4, серии 0 из 3) Первый канал (обновляемая)
    загрузка...
    Рейтинг →
     (голосов: 1, оценка 5/5, голосовать можно 1 раз )

    Другие торренты по теме:

  • Шерлок / Sherlock (2016) WEB-DL [H.264 / 1080p-LQ] (сезон 4, серии 0 из 3) Первый канал (обновляемая) скачать через торрент бесплатно
  • Шерлок / Sherlock (2016) WEB-DLRip [576p] iPad скачать через торрент бесплатно
  • Шерлок / Sherlock (2010-2014) BDRip [H.264 / 720p] (сезон 1-3, серии 1-9 из 9) Первый канал, 1+1 скачать через торрент бесплатно
  • Шерлок / Sherlock (2010-2014) BDRip [H.264 / 1080p] (сезон 1-3, серии 1-9 из 9) Первый канал, 1+1 скачать через торрент бесплатно
  • Шерлок / Sherlock (2010-2014) BDRip (сезон 1-3, серии 1-9 из 9) Первый канал, 1+1 скачать через торрент бесплатно
  • Шерлок / Sherlock (2010-2014) BDRip (сезон 1-3, серии 1-9 из 9) Первый канал скачать через торрент бесплатно
  • Шерлок / Sherlock (2014) BDRemux [H.264 / 1080p] (сезон 3, серии 1-3 из 3) Первый канал скачать через торрент бесплатно
  • Шерлок / Sherlock (2012) BDRemux [H.264 / 1080p] (сезон 2, серии 1-3 из 3) Первый канал скачать через торрент бесплатно


    • Комментарии (0):

      Информация

      Информация

        Посетители, находящиеся в группе Гости, не могут оставлять комментарии в данной новости.

        ↓ Меню




        ↓ Опрос

        Вы добавили сайт в закладки?
        Да
        Нет


        Top 10 за месяц (Фильмы)