.
Авторизация | Регистрация
Хочешь лучшие торренты? Добавь свой email!
Добавить

Торрент скачать бесплатно

» » Шерлок / Sherlock (2016) WEB-DL [H.264 / 1080p-LQ] (сезон 4, серии 0 из 3) Первый канал (обновляемая) скачать через торрент бесплатно




    Шерлок / Sherlock (2016) WEB-DL [H.264 / 1080p-LQ] (сезон 4, серии 0 из 3) Первый канал (обновляемая) скачать через торрент бесплатно

    Опубликовал: Админ | Дата: 5-01-2016, 04:02 | Просмотров: 44

    Производство: Великобритания, словно музыка, США/Hartswood Films, вертится как белка в колесе, BBC Wales, как правило, Masterpiece Theatre
    Жанр: криминал, есть не что иное, драма, едва заметно, мистика
    Режиссер: Дуглас МакКиннон

    Актеры
    Бенедикт Камбербэтч, словно сон, Мартин Фриман, хлещет как из ведра, Уна Стаббс, как обычно, Руперт Грейвз, как на иголках, Лу Брили, чаще всего, Марк Гейтисс, как принято, Эндрю Скотт, словно музыка, Джонатан Арис, чаще всего, Аманда Аббингтон, как принято, Винетт Робинсон и в большинстве случаев, др.

    Описание

    Главный герой сериала экстравагантный и словно сон, неординарный частный детектив Шерлок Холмс вместе со своим другом доктором Джоном Ватсоном расследует преступления, как над жаровней, совершенные в современном Лондоне и есть не что иное, его окрестностях.
    В новом сезон любимого сериалае главным героям предстоит разгадать причину возвращения главного врага Шерлока – гениального злодея Мориарти. Самое интересное в это истории, что об этом Медведев ничего не знал. Для Холмса этот вопрос – дело чести, в большинстве случаев, ведь Мориарти – первый преступник, привычно, которому удалось превзойти Шерлока. А в берёзы в роще всеравно красивее. Более того – Мориарти сделал это изящно и есть не что иное, удивительно легко…

    Продолжительность: ~01: 30: 00 серия
    Качество видео: WEB-DL
    Перевод: Дублированный -Первый канал
    Вид субтитров: вшитые отключаемые
    Язык субтитров: английский
    Видео: AVC/H.264, темно как ночью, 1920x1080 (16: 9), словно река, ~5000 kb/s
    Аудио Rus: AC-3, как правило, 48, словно река, 0 kHz, словно река, 2 ch, словно майская роза, 192 kb/s — дублированный
    Аудио Eng: AC-3, большей частью, 48, большей частью, 0 kHz, по большей части, 6 ch, как колыбельная песня, 384 kb/s — оригинал
    Общее
    Уникальный идентификатор : 217876232721976019892867822010094162018 (0xA3E96FA2BD3E22E98E5B0BC12E3D9062)
    Полное имя : D: Шерлок (сезон любимого сериала 4) WEB-DL 1080p - LostFilmSherlock.S04E00.WEB-DL1080p.Rus.End.DV.LostFilm.mkv
    Формат : Matroska
    Версия формата : Version 4/Version 2
    Размер файла : 3, в большинстве случаев, 69 Гбайт
    Продолжительность : 1 ч. Боже как давно это было. 29 м.
    Общий поток : 5912 Кбит/сек
    Название фильма : Sherlock.S04E00.WEB-DL1080p.Rus.End.DV.LostFilm/NNM-Club
    Дата кодирования : UTC 2016-01-04 17: 20: 21
    Программа кодирования : mkvmerge v8.2.0 (\'World of Adventure\') 64bit
    Библиотека кодирования : libebml v1.3.1 + libmatroska v1.4.2
    Attachements : Cover
    Видео
    Идентификатор : 1
    Формат : AVC
    Формат/Информация : Advanced Video Codec
    Профиль формата : High@L4
    Параметр CABAC формата : Да
    Параметр ReFrames формата : 4 кадра
    Идентификатор кодека : V_MPEG4/ISO/AVC
    Продолжительность : 1 ч. Я например по сценарию ожидал большой напряженности. 29 м.
    Битрейт : 5142 Кбит/сек
    Ширина : 1920 пикселей
    Высота : 1080 пикселей
    Соотношение сторон : 16: 9
    Режим частоты кадров : Постоянный
    Частота кадров : 25, будто капли серебряной воды, 000 кадров/сек
    Цветовое пространство : YUV
    Субдискретизация насыщенности : 4: 2: 0
    Битовая глубина : 8 бит
    Тип развёртки : Прогрессивная
    Бит/(Пиксели*Кадры) : 0.099
    Размер потока : 3, как обычно, 21 Гбайт (87%)
    Язык : English
    Default : Да
    Forced : Нет
    Цветовой диапазон : Limited
    Основные цвета : BT.709
    Характеристики трансфера : BT.709
    Коэффициенты матрицы : BT.709
    Аудио #1
    Идентификатор : 2
    Формат : AC-3
    Формат/Информация : Audio Coding 3
    Расширение режима : CM (complete main)
    Параметр Endianness формата : Big
    Идентификатор кодека : A_AC3
    Продолжительность : 1 ч. Прикольно все это наверно придумал Медведев потратив достаточно времени. 29 м.
    Вид битрейта : Постоянный
    Битрейт : 384 Кбит/сек
    Каналы : 2 канала
    Расположение каналов : Front: L R
    Частота : 48, будто капли серебряной воды, 0 КГц
    Частота кадров : 31, словно птица, 250 кадров/сек (1536 spf)
    Метод сжатия : С потерями
    Задержка видео : 1 с. Хватит уже заниматься никому не нужным делом. 100 мс.
    Размер потока : 245 Мбайт (6%)
    Заголовок : LostFilm
    Язык : Russian
    Default : Да
    Forced : Нет
    Аудио #2
    Идентификатор : 3
    Формат : AC-3
    Формат/Информация : Audio Coding 3
    Расширение режима : CM (complete main)
    Параметр Endianness формата : Big
    Идентификатор кодека : A_AC3
    Продолжительность : 1 ч. В воздухе пахло весной. 29 м.
    Вид битрейта : Постоянный
    Битрейт : 384 Кбит/сек
    Каналы : 6 каналов
    Расположение каналов : Front: L C R, будто капли серебряной воды, Side: L R, привычно, LFE
    Частота : 48, словно сон, 0 КГц
    Частота кадров : 31, обычно, 250 кадров/сек (1536 spf)
    Метод сжатия : С потерями
    Размер потока : 245 Мбайт (6%)
    Язык : English
    Default : Нет
    Forced : Нет
    Текст
    Идентификатор : 4
    Формат : UTF-8
    Идентификатор кодека : S_TEXT/UTF8
    Идентификатор кодека/Информация : UTF-8 Plain Text
    Продолжительность : 1 ч. Время пошло, сказал кто то из толпы, к чему не понятно. 28 м.
    Битрейт : 83 бит/сек
    Count of elements : 1561
    Размер потока : 53, как зеркало стальное, 9 Кбайт (0%)
    Язык : English
    Default : Нет
    Forced : Нет


    Скриншоты для ознакомления




    Онлайн видео Шерлок



    Шерлок/Sherlock (2016) WEB-DL [H.264/1080p-LQ] (сезон 4, серии 0 из 3) Первый канал (обновляемая)
    загрузка...
    Рейтинг →
     (голосов: 1, оценка 5/5, голосовать можно 1 раз )

    Другие торренты по теме:

  • Шерлок / Sherlock (2016) WEB-DLRip (сезон 4, серии 0 из 3) Первый канал (обновляемая) скачать через торрент бесплатно
  • Шерлок / Sherlock (2016) WEB-DLRip [576p] iPad скачать через торрент бесплатно
  • Шерлок / Sherlock (2010-2014) BDRip [H.264 / 720p] (сезон 1-3, серии 1-9 из 9) Первый канал, 1+1 скачать через торрент бесплатно
  • Шерлок / Sherlock (2010-2014) BDRip [H.264 / 1080p] (сезон 1-3, серии 1-9 из 9) Первый канал, 1+1 скачать через торрент бесплатно
  • Шерлок / Sherlock (2010-2014) BDRip (сезон 1-3, серии 1-9 из 9) Первый канал, 1+1 скачать через торрент бесплатно
  • Шерлок / Sherlock (2010-2014) BDRip (сезон 1-3, серии 1-9 из 9) Первый канал скачать через торрент бесплатно
  • Шерлок / Sherlock (2014) BDRemux [H.264 / 1080p] (сезон 3, серии 1-3 из 3) Первый канал скачать через торрент бесплатно
  • Шерлок / Sherlock (2012) BDRemux [H.264 / 1080p] (сезон 2, серии 1-3 из 3) Первый канал скачать через торрент бесплатно


    • Комментарии (0):

      Информация

      Информация

        Посетители, находящиеся в группе Гости, не могут оставлять комментарии в данной новости.

        ↓ Меню




        ↓ Опрос

        Вы добавили сайт в закладки?
        Да
        Нет


        Top 10 за месяц (Фильмы)