.
Авторизация | Регистрация
Хочешь лучшие торренты? Добавь свой email!
Добавить

Торрент скачать бесплатно

» » Эш против Зловещих мертвецов / Ash vs Evil Dead (2015) WEBRip [H.264 / 720p-LQ] (сезон 1, 1-10 из 10) скачать через торрент бесплатно




    Эш против Зловещих мертвецов / Ash vs Evil Dead (2015) WEBRip [H.264 / 720p-LQ] (сезон 1, 1-10 из 10) скачать через торрент бесплатно

    Опубликовал: Админ | Дата: 5-01-2016, 04:02 | Просмотров: 48

    Производство: США/Starz, Renaissance Pictures
    Жанр: Ужасы, Боевик, Комедия
    Режиссер: Майкл Херст, Рик Джейкобсон, Сэм Рэйми

    Актеры
    Брюс Кэмпбелл, Джилл Мари Джонс, Дэна ДеЛоренцо, Люси Лоулесс, Рэй Сантьяго, Мими Роджерс, Хемки Мадера, Фил Пелетон, Дэмиен Гарви и др.

    Описание

    30 лет он избегал ответственности за свои поступки, упорно старался не взрослеть и не особо стремился вновь встретиться с ожившими мертвецами. О таком странном сюжете не догадывалась даже Шакира. Но, совершив ошибку, Эш узнает, что проказа кандарийских демонов угрожает распространиться по всей планете и ему снова приходится вступить в схватку с полчищами мертвой нечисти. Реки крови, горы трупов и, конечно, искрометный черный юмор – отличный подарок всем любителям ужасов, комедий, крови, треша и угара.

    Дата мировой премьеры: 31 октября 2015
    Дата премьеры в России: 31 октября 2015
    Работа со звуком: qqss44
    Продолжительность: ~ 00: 30: 00 серия
    Качество видео: WEBRip
    Перевод: Одноголосый закадровый, профессиональный
    Озвучка: Дмитрий Пучков (Goblin )
    Ненормативная лексика отсутствует
    Вид субтитров: Отсутствуют
    Видео: AVC/H.264, 1272x716, ~5600 kbps
    Аудио 1: AC3, 2 ch, 192 kbps, CBR - русский
    Аудио 2: AC3, 2 ch, 192 kbps, CBR - английский
    Семпл: Скачать
    Код:

    Общее
    Уникальный идентификатор : 223211331551126808518069019295400107918 (0xA7ECF051021606C5932D72D5AC509F8E)
    Полное имя : D:VideoNewestAsh vs Evil Dead (Season 01) 720pAsh.vs.Evil.Dead.S01E02.720p.Goblin.mkv
    Формат : Matroska
    Версия формата : Version 2
    Размер файла : 1, 23 Гбайт
    Продолжительность : 28 м.
    Общий поток : 6073 Кбит/сек
    Дата кодирования : UTC 2015-11-07 17:25:22
    Программа кодирования : mkvmerge v7.9.0 (\'Birds\') 64bit
    Библиотека кодирования : libebml v1.3.1 + libmatroska v1.4.2
    DURATION : 00:28:57.920000000
    NUMBER_OF_FRAMES : 54310
    NUMBER_OF_BYTES : 41710080
    _STATISTICS_WRITING_APP : mkvmerge v7.9.0 (\'Birds\') 64bit
    _STATISTICS_WRITING_DATE_UTC : 2015-11-07 17:25:22
    _STATISTICS_TAGS : BPS DURATION NUMBER_OF_FRAMES NUMBER_OF_BYTES
    Видео
    Идентификатор : 1
    Формат : AVC
    Формат/Информация : Advanced Video Codec
    Профиль формата :High@L4.1
    Параметр CABAC формата : Да
    Параметр ReFrames формата : 9 кадров
    Идентификатор кодека : V_MPEG4/ISO/AVC
    Продолжительность : 28 м.
    Битрейт : 5568 Кбит/сек
    Ширина : 1272 пикселя
    Высота : 716 пикселей
    Соотношение сторон : 16:9
    Режим частоты кадров : Постоянный
    Частота кадров : 25, 000 кадров/сек
    Частота кадров в оригинале : 23, 976 кадра/сек
    Цветовое пространство : YUV
    Субдискретизация насыщенности : 4:2:0
    Битовая глубина : 8 бит
    Тип развёртки : Прогрессивная
    Бит/(Пиксели*Кадры) : 0.245
    Размер потока : 1, 13 Гбайт (92%)
    Библиотека кодирования : x264 core 148 r2638 7599210
    Настройки программы : cabac=1/ref=9/deblock=1:-3:-3/analyse=0x3:0x133/me=umh/subme=10/psy=1/psy_rd=1.10:0.00/mixed_ref=1/me_range=32/chroma_me=1/trellis=2/8x8dct=1/cqm=0/deadzone=21, 11/fast_pskip=0/chroma_qp_offset=-2/threads=12/lookahead_threads=2/sliced_threads=0/nr=0/decimate=0/interlaced=0/bluray_compat=0/constrained_intra=0/bframes=8/b_pyramid=2/b_adapt=2/b_bias=0/direct=3/weightb=1/open_gop=0/weightp=2/keyint=250/keyint_min=23/scenecut=40/intra_refresh=0/rc_lookahead=60/rc=crf/mbtree=0/crf=17.5/qcomp=0.75/qpmin=0/qpmax=69/qpstep=4/vbv_maxrate=62500/vbv_bufsize=78125/crf_max=0.0/nal_hrd=none/filler=0/ip_ratio=1.20/pb_ratio=1.10/aq=3:0.70
    Язык : English
    Default : Да
    Forced : Нет
    DURATION : 00:28:57.480000000
    NUMBER_OF_FRAMES : 43437
    NUMBER_OF_BYTES : 1235376640
    _STATISTICS_WRITING_APP : mkvmerge v7.9.0 (\'Birds\') 64bit
    _STATISTICS_WRITING_DATE_UTC : 2015-11-07 17:25:22
    _STATISTICS_TAGS : BPS DURATION NUMBER_OF_FRAMES NUMBER_OF_BYTES
    Аудио #1
    Идентификатор : 2
    Формат : AC-3
    Формат/Информация : Audio Coding 3
    Расширение режима : CM (complete main)
    Параметр Endianness формата : Big
    Идентификатор кодека : A_AC3
    Продолжительность : 28 м.
    Вид битрейта : Постоянный
    Битрейт : 192 Кбит/сек
    Каналы : 2 канала
    Расположение каналов : Front: L R
    Частота : 48, 0 КГц
    Метод сжатия : С потерями
    Размер потока : 39, 8 Мбайт (3%)
    Язык : Russian
    Default : Да
    Forced : Нет
    Аудио #2
    Идентификатор : 3
    Формат : AC-3
    Формат/Информация : Audio Coding 3
    Расширение режима : CM (complete main)
    Параметр Endianness формата : Big
    Идентификатор кодека : A_AC3
    Продолжительность : 28 м.
    Вид битрейта : Постоянный
    Битрейт : 192 Кбит/сек
    Каналы : 2 канала
    Расположение каналов : Front: L R
    Частота : 48, 0 КГц
    Метод сжатия : С потерями
    Размер потока : 39, 8 Мбайт (3%)
    Язык : English
    Default : Нет
    Forced : Нет


    Скриншоты для ознакомления




    Онлайн видео Эш против Зловещих мертвецов



    Эш против Зловещих мертвецов/Ash vs Evil Dead (2015) WEBRip [H.264/720p-LQ] (сезон 1, 1-10 из 10)
    загрузка...
    Рейтинг →
     (голосов: 1, оценка 4/5, голосовать можно 1 раз )

    Другие торренты по теме:

  • Эш против Зловещих мертвецов / Ash vs Evil Dead (2015) WEBRip [H.264 / 720p] [Трейлер] [VO] скачать через торрент бесплатно
  • Эш против Зловещих мертвецов / Ash vs Evil Dead (2015) WEBRip [H.264 / 720p] [Трейлер] [EN] скачать через торрент бесплатно
  • Эш против Зловещих мертвецов / Ash vs Evil Dead (2015) WEBRip [H.264 / 1080p] [Трейлер] скачать через торрент бесплатно
  • Эш против Зловещих мертвецов / Ash vs Evil Dead (2015) HDTVRip (сезон 1, серии 1 из 10) Novamedia (обновляемая) скачать через торрент бесплатно
  • Эш против Зловещих мертвецов / Ash vs Evil Dead (2015) WEB-DLRip (сезон 1, серии 1 из 10) NewStudio (обновляемая) скачать через торрент бесплатно
  • Эш против Зловещих мертвецов / Ash vs Evil Dead (2015) WEBRip [H.264 / 720p-LQ] (сезон 1, серии 1 из 10) Novamedia (обновляемая) скачать через торрент бесплатно
  • Эш против Зловещих мертвецов / Ash vs Evil Dead (2015) HDTVRip [H.264 / 720p-LQ] (сезон 1, серии 1 из 10) Пучков (обновляемая) скачать через торрент бесплатно
  • Эш против Зловещих мертвецов / Ash vs Evil Dead (2015) WEBRip [H.264 / 720p-LQ] (сезон 1, серия 1 из 10) (NewStudio) (обновляемая) скачать через торрент бесплатно


    • Комментарии (0):

      Информация

      Информация

        Посетители, находящиеся в группе Гости, не могут оставлять комментарии в данной новости.

        ↓ Меню




        ↓ Опрос

        Вы добавили сайт в закладки?
        Да
        Нет


        Top 10 за месяц (Фильмы)