.
Авторизация | Регистрация
Хочешь лучшие торренты? Добавь свой email!
Добавить

Торрент скачать бесплатно

» » Кэтлоу / Catlow (1971) DVD5 скачать через торрент бесплатно




    Кэтлоу / Catlow (1971) DVD5 скачать через торрент бесплатно

    Опубликовал: Админ | Дата: 4-01-2016, 04:01 | Просмотров: 83

    Производство: США, Великобритания Metro-Goldwyn-Mayer
    Жанр: Комедия, вестерн
    Режиссер: Сэм Уонамейкер

    Актеры
    Юл Бриннер, Ричард Кренна, Леонард Нимой, Далия Лави, Джо Энн Пфлюг, Джефф Кори, Майкл ДеЛано, Хулиан Матеос, Дэвид Лэдд, Роберт Логан

    Описание

    Крутой и крепкий Кэтлоу умеет быстро соображать, особенно если депо касается долларов. Поэтому-то его и разыскивают. Мексиканская армия. А также: бывшая любовница, воинственные индейцы, мститель-убийца и несколько обиженных ребят из его собственной банды. Имея столько врагов, полезно обзавестись таким другом, как шериф Бен Коуэн. Шериф — лучший друг Кэтлоу, он не испугается целого полчища гремучих змей, чтобы спасти своего приятеля. Потому что Коуэн рассчитывает на особую привилегию: самолично посадить Кэтлоу за решетку...

    Продолжительность: 01: 41: 18
    Качество видео: DVD5
    Перевод: Дублированный
    Субтитры: Нет
    Дополнительные материалы: Трейлер к фильму
    Видео: NTSC 16: 9 (720x480@853x480) VBR, ~5239 Кбит/сек, 29, 97 кадр/сек
    Аудио#1: AC3, 2/0ch, 192Kbps (Русский)
    Аудио#2: AC3, 2/0ch, 192Kbps (Английский)
    Сэмпл: Ссылка
    Title:
    Size: 4.21 Gb ( 4 411 008 KBytes ) - DVD-5
    Enabled regions: 1, 2, 3, 4, 5, 6, 7, 8
    VTS_01 :
    Play Length: 01: 41: 18+00: 02: 51
    Video: NTSC 16: 9 (720x480) VBR, Auto Letterboxed
    Audio:
    Russian (Dolby AC3, 2 ch)
    English (Dolby AC3, 2 ch)
    Код:

    Общее
    Полное имя : F:[NNM-Club.me]_Catlow.1971.DVD5_maroder1VIDEO_TSVTS_01_1.VOB
    Формат : MPEG-PS
    Размер файла : 1024 Мбайт
    Продолжительность : 24 м.
    Режим общего битрейта : Переменный
    Общий поток : 5737 Кбит/сек
    Библиотека кодирования : encoded by TMPGEnc Authoring Works 5 Version. 5.0.8.26
    Видео
    Идентификатор : 224 (0xE0)
    Формат : MPEG Video
    Версия формата : Version 2
    Профиль формата : Main@Main
    Параметр BVOP формата : Да
    Параметр матрицы формата : По умолчанию
    Параметр GOP формата : Variable
    Продолжительность : 24 м.
    Вид битрейта : Переменный
    Битрейт : 5239 Кбит/сек
    Максимальный битрейт : 7500 Кбит/сек
    Ширина : 720 пикселей
    Высота : 480 пикселей
    Соотношение сторон : 16:9
    Частота кадров : 29, 970 кадров/сек
    Стандарт вещания : NTSC
    Цветовое пространство : YUV
    Субдискретизация насыщенности : 4:2:0
    Битовая глубина : 8 бит
    Метод сжатия : С потерями
    Бит/(Пиксели*Кадры) : 0.506
    Размер потока : 935 Мбайт (91%)
    Выравнивание : encoded by TMPGEnc Authoring Works 5 Version. 5.0.8.26
    Заголовок : TMPGEnc
    Программа кодирования : Authoring Works 5 Version. 5.0.8.26
    Библиотека кодирования : TMPGEnc Authoring Works 5 Version. 5.0.8.26
    Основные цвета : BT.601 NTSC
    Характеристики трансфера : BT.601
    Коэффициенты матрицы : BT.601
    Аудио #1
    Идентификатор : 189 (0xBD)-128 (0x80)
    Формат : AC-3
    Формат/Информация : Audio Coding 3
    Расширение режима : CM (complete main)
    Параметр Endianness формата : Big
    Режим смешивания : DVD-Video
    Продолжительность : 24 м.
    Вид битрейта : Постоянный
    Битрейт : 192 Кбит/сек
    Каналы : 2 канала
    Расположение каналов : Front: L R
    Частота : 48, 0 КГц
    Битовая глубина : 16 бит
    Метод сжатия : С потерями
    Размер потока : 34, 3 Мбайт (3%)
    Аудио #2
    Идентификатор : 189 (0xBD)-129 (0x81)
    Формат : AC-3
    Формат/Информация : Audio Coding 3
    Расширение режима : CM (complete main)
    Параметр Endianness формата : Big
    Режим смешивания : DVD-Video
    Продолжительность : 24 м.
    Вид битрейта : Постоянный
    Битрейт : 192 Кбит/сек
    Каналы : 2 канала
    Расположение каналов : Front: L R
    Частота : 48, 0 КГц
    Битовая глубина : 16 бит
    Метод сжатия : С потерями
    Размер потока : 34, 3 Мбайт (3%)
    Меню


    Скриншоты для ознакомления




    Кэтлоу/Catlow (1971) DVD5
    загрузка...
    Рейтинг →
     (голосов: 1, оценка 4/5, голосовать можно 1 раз )

    Другие торренты по теме:

  • Никалас Кэтлоу | Ты рисуешь закорючки (2007) [PDF]


    • Комментарии (0):

      Информация

      Информация

        Посетители, находящиеся в группе Гости, не могут оставлять комментарии в данной новости.

        ↓ Меню




        ↓ Опрос

        Вы добавили сайт в закладки?
        Да
        Нет


        Top 10 за месяц (Фильмы)