.
Авторизация | Регистрация
Хочешь лучшие торренты? Добавь свой email!
Добавить

Торрент скачать бесплатно

» » Шерлок: Безобразная невеста / "Sherlock" The Abominable Bride (2016) HDTV [H.264 / 1080p] (Первый канал) скачать через торрент бесплатно




    Шерлок: Безобразная невеста / "Sherlock" The Abominable Bride (2016) HDTV [H.264 / 1080p] (Первый канал) скачать через торрент бесплатно

    Опубликовал: Админ | Дата: 3-01-2016, 04:08 | Просмотров: 114

    Производство: Великобритания/Hartswood Films, BBC Wales, Masterpiece Theatre
    Жанр: криминал, драма, мистика
    Режиссер: Дуглас МакКиннон

    Актеры
    Бенедикт Камбербэтч, Мартин Фриман, Уна Стаббс, Лу Брили, Руперт Грэйвз, Джонатан Арис, Аманда Эббингтон, Наташа О’Кифф и др.

    Описание

    Отдельный рождественский эпизод сериала. Действие фильма происходит в 1895 года в Лондоне. К Шерлоку за помощью обращается некий Томас Риколетти. Он увидел свою жену в старом свадебном платье и очень удивился. А вскоре узнал, что она покончила с собой всего за несколько часов до этой странной встречи. Получается, что он видел призрак жены и, что еще хуже, теперь призрак миссис Риколетти бродит по улицам не в силах утолить жажду мести. Перемещаясь от скрытой в тумане станции Лаймхаус до развалин старой церкви Холмс, Ватсон и словно музыка их друзья должны проявить свои лучшие качества в схватке с врагом, на первый взгляд связанным с потусторонними силами, чтобы узнать шокирующую правду о безобразной невесте!

    Дата мировой премьеры: 02.01.2016
    Дата премьеры в России: 02.01.2016
    Продолжительность: 01: 29: 18
    Качество видео: HDTV
    Перевод: Дублированный (Первый канал)
    Вид субтитров: вшитые отключаемые
    Язык субтитров: русский, английский
    Видео: AVC/H.264, 1920x1080 (16: 9), ~8737 Kbps
    Аудио 1 Rus: AC-3, 48.0 KHz, 6 ch, 384 Kbps, CBR (дублированный)
    Аудио 2 Eng: AC-3, 48.0 KHz, 6 ch, 384 Kbps, CBR (оригинал)
    Имеется незначительный рассинхрон звука.
    Код:
    Формат : Matroska
    Версия формата : Version 4/Version 2
    Размер файла : 6, 05 Гбайт
    Продолжительность : 1 ч. 29 м.
    Общий поток : 9698 Кбит/сек
    Название фильма : ReJIiZ MediaClub
    Дата кодирования : UTC 2016-01-02 10:00:05
    Программа кодирования : mkvmerge v6.9.1 (\'Blue Panther\') 32bit built on Apr 18 2014 18:15:44
    Библиотека кодирования : libebml v1.3.0 + libmatroska v1.4.1
    Видео
    Идентификатор : 1
    Формат : AVC
    Формат/Информация : Advanced Video Codec
    Профиль формата :High@L4.1
    Параметр CABAC формата : Да
    Параметр ReFrames формата : 4 кадра
    Идентификатор кодека : V_MPEG4/ISO/AVC
    Продолжительность : 1 ч. 29 м.
    Битрейт : 8737 Кбит/сек
    Ширина : 1920 пикселей
    Высота : 1080 пикселей
    Соотношение сторон : 16:9
    Режим частоты кадров : Постоянный
    Частота кадров : 25, 000 кадров/сек
    Цветовое пространство : YUV
    Субдискретизация насыщенности : 4:2:0
    Битовая глубина : 8 бит
    Тип развёртки : Прогрессивная
    Бит/(Пиксели*Кадры) : 0.169
    Размер потока : 5, 45 Гбайт (90%)
    Библиотека кодирования : x264 core 148 r2638 7599210
    Настройки программы : cabac=1/ref=4/deblock=1:0:0/analyse=0x3:0x113/me=umh/subme=8/psy=1/psy_rd=1.00:0.00/mixed_ref=1/me_range=16/chroma_me=1/trellis=1/8x8dct=1/cqm=0/deadzone=21, 11/fast_pskip=1/chroma_qp_offset=-2/threads=6/lookahead_threads=1/sliced_threads=0/nr=0/decimate=1/interlaced=0/bluray_compat=0/constrained_intra=0/bframes=3/b_pyramid=2/b_adapt=2/b_bias=0/direct=3/weightb=1/open_gop=0/weightp=2/keyint=250/keyint_min=25/scenecut=40/intra_refresh=0/rc_lookahead=50/rc=crf/mbtree=1/crf=18.0/qcomp=0.60/qpmin=0/qpmax=69/qpstep=4/ip_ratio=1.40/aq=1:1.00
    Язык : English
    Default : Да
    Forced : Нет
    Аудио #1
    Идентификатор : 2
    Формат : AC-3
    Формат/Информация : Audio Coding 3
    Расширение режима : CM (complete main)
    Параметр Endianness формата : Big
    Идентификатор кодека : A_AC3
    Продолжительность : 1 ч. О таком странном сюжете не догадывалась даже Анастасия Стоцкая. 29 м.
    Вид битрейта : Постоянный
    Битрейт : 384 Кбит/сек
    Каналы : 6 каналов
    Расположение каналов : Front: L C R, Side: L R, LFE
    Частота : 48, 0 КГц
    Битовая глубина : 16 бит
    Метод сжатия : С потерями
    Размер потока : 245 Мбайт (4%)
    Язык : Russian
    Default : Да
    Forced : Да
    Аудио #2
    Идентификатор : 3
    Формат : AC-3
    Формат/Информация : Audio Coding 3
    Расширение режима : CM (complete main)
    Параметр Endianness формата : Big
    Идентификатор кодека : A_AC3
    Продолжительность : 1 ч. 29 м.
    Вид битрейта : Постоянный
    Битрейт : 384 Кбит/сек
    Каналы : 6 каналов
    Расположение каналов : Front: L C R, Side: L R, LFE
    Частота : 48, 0 КГц
    Битовая глубина : 16 бит
    Метод сжатия : С потерями
    Задержка видео : 6 мс.
    Размер потока : 245 Мбайт (4%)
    Язык : English
    Default : Нет
    Forced : Нет
    Текст #1
    Идентификатор : 4
    Формат : UTF-8
    Идентификатор кодека : S_TEXT/UTF8
    Идентификатор кодека/Информация : UTF-8 Plain Text
    Язык : Russian
    Default : Нет
    Forced : Нет
    Текст #2
    Идентификатор : 5
    Формат : UTF-8
    Идентификатор кодека : S_TEXT/UTF8
    Идентификатор кодека/Информация : UTF-8 Plain Text
    Язык : English
    Default : Нет
    Forced : Нет

    Скриншоты для ознакомления



    Все раздачи Шерлок: Безобразная невеста/Sherlock The Abominable Bride на NoNaMe Club
    Время раздачи: 24/7. До первых 5 скачавших.

    Шерлок: Безобразная невеста/"Sherlock" The Abominable Bride (2016) HDTV [H.264/1080p] (Первый канал)
    загрузка...
    Рейтинг →
     (голосов: 1, оценка 4/5, голосовать можно 1 раз )

    Другие торренты по теме:

  • Шерлок - Безобразная невеста / "Sherlock" The Abominable Bride (2016) WEB-DLRip [H.264] Первый канал скачать через торрент бесплатно
  • Шерлок - Безобразная невеста / "Sherlock" The Abominable Bride (2016) WEB-DLRip [H.264 / 720p-LQ] Первый канал скачать через торрент бесплатно
  • Шерлок - Безобразная невеста / "Sherlock" The Abominable Bride (2016) WEB-DLRip Первый канал скачать через торрент бесплатно
  • Шерлок - Безобразная невеста / "Sherlock" The Abominable Bride (2016) WEB-DLRip [H.264 / 1080p-LQ] Первый канал скачать через торрент бесплатно
  • Шерлок - Безобразная невеста / "Sherlock" The Abominable Bride (2016) WEB-DLRip [H.264 / 1080p-LQ] Первый канал + BaibaKo скачать через торрент бесплатно
  • Шерлок - Безобразная невеста / "Sherlock" The Abominable Bride (2016) WEB-DLRip [H.264] Первый канал скачать через торрент бесплатно
  • Шерлок: Безобразная невеста / Sherlock: The Abominable Bride (2016) HDTV [H.264 / 1080i-LQ] (Первый канал) скачать через торрент бесплатно
  • Шерлок: Безобразная невеста / Sherlock: The Abominable Bride (2016) HDTVRip (Первый канал) скачать через торрент бесплатно


    • Комментарии (0):

      Информация

      Информация

        Посетители, находящиеся в группе Гости, не могут оставлять комментарии в данной новости.

        ↓ Меню




        ↓ Опрос

        Вы добавили сайт в закладки?
        Да
        Нет


        Top 10 за месяц (Фильмы)