.
Авторизация | Регистрация
Хочешь лучшие торренты? Добавь свой email!
Добавить

Торрент скачать бесплатно

» » Розыск-3 (2015) SATRip [H.264] (серии 1-2 из 16) (обновляемая) скачать через торрент бесплатно




    Розыск-3 (2015) SATRip [H.264] (серии 1-2 из 16) (обновляемая) скачать через торрент бесплатно

    Опубликовал: Админ | Дата: 3-01-2016, 04:08 | Просмотров: 84

    Производство: Россия/Альянс профи, НТВ-Кино
    Жанр: детектив
    Режиссер: Сергей Краснов

    Актеры
    Сергей Борисов , Роман Богданов, Алексей Фаддеев, Василий Шмаков, Рамиль Сабитов, Руслан Ягудин, Леонид Тимцуник, Наталья Лукеичева, Марина Черняева, Владислав Маленко, Сергей Якубенко, Игорь Ливанов, Сергей Векслер, Алексей Ошурков, Олег Харитонов, Сергей Беляев, Денис Варенов, Софья Максимча, Денис Курочка, Тамерлан Коченов, Александр Воробьёв , Елена Штарова, Александр Хованский , Алексей Алфеев, Ксения Щербакова, Елена Беркова и др.

    Описание

    Начальник уголовного розыска одного из районов Москвы Денис Попов со своими оперативниками Могилиным, Жуковым и Лукиным продолжают противостоять криминальному миру.
    Смерть авторитета Самохина, казалось бы, прекратила бандитские разборки, и теперь майор Попов вернулся к розыску преступников, пытаясь совместить опасную работу и воспитание своей дочери-подростка. Но временное затишье грозит бурей. Преступные группировки больше не могут мирно уживаться на одной территории: Кок, бывшая правая рука Самохина, и Ринат, главный враг покойного авторитета, решают окончательно разобраться в том, кто будет контролировать территорию.

    Дата премьеры в России: 2 января 2016 (НТВ)
    Продолжительность: ~00: 43: 00 серия
    Качество видео: SATRip
    Видео: AVC/H.264, 720х400 (16: 9), ~1260 Кбит/сек
    Аудио: AC3, 2 канала, 192 Кбит/сек, CBR
    Код:

    Общее
    Уникальный идентификатор : 208204038254020235333759696546047844421 (0x9CA2A3A1675E770391E3810C2A39E045)
    Полное имя : F:Розыск-3Розыск-3_01 серия rip by_Aleksan55.mkv
    Формат : Matroska
    Версия формата : Version 2
    Размер файла : 462 Мбайт
    Продолжительность : 43 м.
    Общий поток : 1481 Кбит/сек
    Дата кодирования : UTC 2016-01-02 16:40:43
    Программа кодирования : mkvmerge v7.8.0 (\'River Man\') 32bit built on Apr 3 2015 12:11:22
    Библиотека кодирования : libebml v1.3.1 + libmatroska v1.4.2
    Видео
    Идентификатор : 1
    Формат : AVC
    Формат/Информация : Advanced Video Codec
    Профиль формата :High@L4.1
    Параметр CABAC формата : Да
    Параметр ReFrames формата : 9 кадров
    Идентификатор кодека : V_MPEG4/ISO/AVC
    Продолжительность : 43 м.
    Битрейт : 1260 Кбит/сек
    Ширина : 720 пикселей
    Высота : 400 пикселей
    Соотношение сторон : 1, 85:1
    Режим частоты кадров : Постоянный
    Частота кадров : 25, 000 кадров/сек
    Цветовое пространство : YUV
    Субдискретизация насыщенности : 4:2:0
    Битовая глубина : 8 бит
    Тип развёртки : Прогрессивная
    Бит/(Пиксели*Кадры) : 0.175
    Размер потока : 393 Мбайт (85%)
    Библиотека кодирования : x264 core 146 r2538 121396c
    Настройки программы : cabac=1/ref=9/deblock=1:-3:-3/analyse=0x3:0x133/me=umh/subme=9/psy=1/psy_rd=1.00:0.25/mixed_ref=0/me_range=32/chroma_me=1/trellis=2/8x8dct=1/cqm=0/deadzone=21, 11/fast_pskip=1/chroma_qp_offset=-4/threads=2/lookahead_threads=1/sliced_threads=0/nr=0/decimate=1/interlaced=0/bluray_compat=0/constrained_intra=0/bframes=9/b_pyramid=2/b_adapt=2/b_bias=0/direct=1/weightb=1/open_gop=0/weightp=2/keyint=250/keyint_min=25/scenecut=40/intra_refresh=0/rc_lookahead=40/rc=crf/mbtree=1/crf=17.0/qcomp=0.60/qpmin=0/qpmax=69/qpstep=4/ip_ratio=1.40/aq=1:1.00
    Default : Да
    Forced : Нет
    Цветовой диапазон : Limited
    Основные цвета : BT.601 PAL
    Характеристики трансфера : BT.470 System B, BT.470 System G
    Коэффициенты матрицы : BT.601
    Аудио
    Идентификатор : 2
    Формат : AC-3
    Формат/Информация : Audio Coding 3
    Расширение режима : CM (complete main)
    Параметр Endianness формата : Big
    Идентификатор кодека : A_AC3
    Продолжительность : 43 м.
    Вид битрейта : Постоянный
    Битрейт : 192 Кбит/сек
    Каналы : 2 канала
    Расположение каналов : Front: L R
    Частота : 48, 0 КГц
    Метод сжатия : С потерями
    Размер потока : 59, 9 Мбайт (13%)
    Default : Да
    Forced : Нет


    Скриншоты для ознакомления




    Онлайн видео Розыск



    Розыск-3 (2015) SATRip [H.264] (серии 1-2 из 16) (обновляемая)
    загрузка...
    Рейтинг →
     (голосов: 1, оценка 3/5, голосовать можно 1 раз )

    Другие торренты по теме:

  • Розыск 2 (2013) WEB-DLRip [H.264 / 720p-LQ] (серии 1-16 из 16)
  • Розыск (2013) WEB-DLRip [H.264 / 720p-LQ] (серии 1-16 из 16)
  • Розыск 2 (2013) WEB-DLRip [H.264 / 1080p-LQ] (серии 1-16 из 16)
  • Розыск (2013) WEB-DLRip [H.264 / 1080p-LQ] (серии 1-16 из 16)
  • Эйс Вентура: Розыск домашних животных / Ace Ventura: Pet Detective (1994) BDRip [H.264 / 1080p] скачать через торрент бесплатно
  • А. Грачев | Объявлен розыск...: Краткий очерк истории ярославской милиции (1988) [PDF] скачать через торрент бесплатно
  • Розыск 3 (2015) HDTVRip (серии 1-16 из 16)
  • Юрий Кларов | Розыск (2015) [MP3]


    • Комментарии (0):

      Информация

      Информация

        Посетители, находящиеся в группе Гости, не могут оставлять комментарии в данной новости.

        ↓ Меню




        ↓ Опрос

        Вы добавили сайт в закладки?
        Да
        Нет


        Top 10 за месяц (Фильмы)