.
Авторизация | Регистрация
Хочешь лучшие торренты? Добавь свой email!
Добавить

Торрент скачать бесплатно

» » И никого не стало / And Then There Were None (2015) HDTVRip (сезон 1, серии 1 из 3) LostFilm (обновляемая) скачать через торрент бесплатно




    И никого не стало / And Then There Were None (2015) HDTVRip (сезон 1, серии 1 из 3) LostFilm (обновляемая) скачать через торрент бесплатно

    Опубликовал: Админ | Дата: 2-01-2016, 04:01 | Просмотров: 70

    Производство: Великобритания/Mammoth Screen, Agatha Christie Productions, AE Television Networks
    Жанр: триллер, драма, криминал, детектив
    Режиссер: Крэйг Вивейрос

    Актеры
    Катрин Бэйли, Дуглас Бут, Чарльз Дэнс, Мейв Дермоди, Берн Горман, Кристофер Хатрэлл, Анна Максвелл Мартин, Сэм Нил, Миранда Ричардсон, Тоби Стивенс и др.

    Описание

    Десять незнакомых друг с другом человек оказываются приглашенными супругами Оним в великолепный дом, расположенный на острове. Собравшись за большим обеденным столом, гости с удивлением узнают, что хозяев нет в доме. Вскоре, они слышат таинственный голос, который предъявляет гостям обвинения в совершенных ими убийствах. Гости, которые не могут уехать с острова, оказались в ловушке. Время пошло, сказал кто то из толпы, к чему не понятно. Кто-то начинает по очереди их убивать. И не осталось никого — экранизация детективного романа Агаты Кристи Десять негритят.

    Дата мировой премьеры: 26 декабря 2015
    Продолжительность: ~00: 55: 00 серия
    Качество видео: HDTVRip
    Перевод: Многоголосый закадровый, профессиональный -LostFilm
    Видео: XviD, 720x400 (16: 9), ~1500 kb/s
    Аудио Rus: MPEG Layer 3, 48, 0 kHz, 2 ch, 128 kb/s — многоголосый закадровый
    Аудио Eng: MPEG Layer 3, 48, 0 kHz, 2 ch, 128 kb/s — оригинал
    Общее
    Полное имя : D: И никого не стало (сезон любимого сериала 1) And Then There Were None (2015) HDTVRip - LostFilmAnd.Then.There.Were.None.S01E01.HDTVRip.Rus.Eng.DV.LostFilm.avi
    Формат : AVI
    Формат/Информация : Audio Video Interleave
    Размер файла : 712 Мбайт
    Продолжительность : 55 м.
    Общий поток : 1779 Кбит/сек
    Программа кодирования : VirtualDubModRus 1.5.10.2 (build 2542/release)
    Библиотека кодирования : VirtualDubMod build 2542/release
    Видео
    Идентификатор : 0
    Формат : MPEG-4 Visual
    Профиль формата : Advanced Simple@L5
    Параметр BVOP формата : 2
    Параметр QPel формата : Нет
    Параметр GMC формата : Без точки перехода
    Параметр матрицы формата : Default (H.263)
    Идентификатор кодека : XVID
    Идентификатор кодека/Подсказка : XviD
    Продолжительность : 55 м.
    Битрейт : 1508 Кбит/сек
    Ширина : 720 пикселей
    Высота : 400 пикселей
    Соотношение сторон : 16: 9
    Частота кадров : 25, 000 кадров/сек
    Цветовое пространство : YUV
    Субдискретизация насыщенности : 4: 2: 0
    Битовая глубина : 8 бит
    Тип развёртки : Прогрессивная
    Метод сжатия : С потерями
    Бит/(Пиксели*Кадры) : 0.209
    Размер потока : 604 Мбайт (85%)
    Заголовок : Rip by DriverV/NNM-Club
    Библиотека кодирования : XviD 64
    Аудио #1
    Идентификатор : 1
    Формат : MPEG Audio
    Версия формата : Version 1
    Профиль формата : Layer 3
    Режим : Joint stereo
    Расширение режима : MS Stereo
    Идентификатор кодека : 55
    Идентификатор кодека/Подсказка : MP3
    Продолжительность : 55 м.
    Вид битрейта : Постоянный
    Битрейт : 128 Кбит/сек
    Каналы : 2 канала
    Частота : 48, 0 КГц
    Метод сжатия : С потерями
    Размер потока : 51, 2 Мбайт (7%)
    Выравнивание : Разделение по промежуткам
    Продолжительность промежутка : 40 мс. (1, 00 видеокадр)
    Время предзагрузки промежутка : 500 мс.
    Аудио #2
    Идентификатор : 2
    Формат : MPEG Audio
    Версия формата : Version 1
    Профиль формата : Layer 3
    Режим : Joint stereo
    Идентификатор кодека : 55
    Идентификатор кодека/Подсказка : MP3
    Продолжительность : 55 м.
    Вид битрейта : Постоянный
    Битрейт : 128 Кбит/сек
    Каналы : 2 канала
    Частота : 48, 0 КГц
    Метод сжатия : С потерями
    Размер потока : 51, 2 Мбайт (7%)
    Выравнивание : Разделение по промежуткам
    Продолжительность промежутка : 40 мс. (1, 00 видеокадр)
    Время предзагрузки промежутка : 500 мс.


    Скриншоты для ознакомления




    Онлайн видео И никого не стало



    И никого не стало/And Then There Were None (2015) HDTVRip (сезон 1, серии 1 из 3) LostFilm (обновляемая)
    загрузка...
    Рейтинг →
     (голосов: 1, оценка 3/5, голосовать можно 1 раз )

    Другие торренты по теме:

  • И никого не стало / And Then There Were None (2015) HDTVRip (сезон 1, серии 1 из 3) NewStudio (обновляемая) скачать через торрент бесплатно
  • Изабель Отисье | И вдруг никого не стало (2017) [FB2, EPUB]


    • Комментарии (0):

      Информация

      Информация

        Посетители, находящиеся в группе Гости, не могут оставлять комментарии в данной новости.

        ↓ Меню




        ↓ Опрос

        Вы добавили сайт в закладки?
        Да
        Нет


        Top 10 за месяц (Фильмы)