.
Авторизация | Регистрация
Хочешь лучшие торренты? Добавь свой email!
Добавить

Торрент скачать бесплатно

» » Беовульф / Беовульф: Возвращение в Шилдлендс / Beowulf: Return to the Shieldlands (2016) WEB-DLRip (сезон 1, серии 1 из 13) NewStudio (обновляемая) скачать через торрент бесплатно




    Беовульф / Беовульф: Возвращение в Шилдлендс / Beowulf: Return to the Shieldlands (2016) WEB-DLRip (сезон 1, серии 1 из 13) NewStudio (обновляемая) скачать через торрент бесплатно

    Опубликовал: Админ | Дата: 31-12-2015, 04:01 | Просмотров: 117

    Производство: США/ITV Studios, Independent Television (ITV)
    Жанр: фэнтези, боевик, драма, приключения
    Режиссер: Джон Ист, Джулиан Холмс, Марек Лоузи

    Актеры
    Гисли Орн Гардарссон, Киран Бью, Лолита Чакрабарти, Кирсти Освальд, Эшли Томас, Пабло Вердехо, Дэвид Аджала, Джои Анса и др.

    Описание

    Местом действия фэнтези-драмы станут полные опасности бескрайние земли Шилдленда, населенного не только людьми, но и всевозможными фантастическими существами. В центре сюжета окажется скандинавский воин-наемник Беовульф. Спустя многие годы, проведенные в скитаниях и сражениях, Беовульф возвращается в Хеорот, засвидетельствовать свое почтение к недавно умершему правителю и давнему другу Хродгару. Но когда на Хеорот нападает ужасное чудовище Грендель, Беовульфу не остается ничего другого, кроме как сразиться с чудовищем, завоевав благосклонность новой правительницы Таны и всего народа.

    Дата мировой премьеры: 03 января 2016
    Продолжительность: ~00: 45: 00 серия
    Качество видео: WEB-DLRip
    Перевод: Многоголосый закадровый, профессиональный -NewStudio
    Автор перевода: Юлия Мейер
    Видео: XviD, 720x400 (16: 9), ~1400 kb/s
    Аудио Rus: MPEG Layer 3, 48, 0 kHz, 2 ch, 128 kb/s — многоголосый закадровый
    Аудио Eng: MPEG Layer 3, 48, 0 kHz, 2 ch, 128 kb/s — оригинал
    Общее
    Полное имя : D: Беовульф (сезон любимого сериала 1) Beowulf Return to the Shieldlands (2016) WEB-DLRip - NewStudioBeowulf.Return.To.The.Shieldlands.S01E01.WEB-DLRip.Rus.Eng.DV.NewStudio.avi
    Формат : AVI
    Формат/Информация : Audio Video Interleave
    Размер файла : 538 Мбайт
    Продолжительность : 44 м.
    Общий поток : 1677 Кбит/сек
    Программа кодирования : VirtualDubModRus 1.5.10.2 (build 2542/release)
    Библиотека кодирования : VirtualDubMod build 2542/release
    Видео
    Идентификатор : 0
    Формат : MPEG-4 Visual
    Профиль формата : Advanced Simple@L5
    Параметр BVOP формата : 2
    Параметр QPel формата : Нет
    Параметр GMC формата : Без точки перехода
    Параметр матрицы формата : Default (MPEG)
    Идентификатор кодека : XVID
    Идентификатор кодека/Подсказка : XviD
    Продолжительность : 44 м.
    Битрейт : 1406 Кбит/сек
    Ширина : 720 пикселей
    Высота : 400 пикселей
    Соотношение сторон : 16: 9
    Частота кадров : 25, 000 кадров/сек
    Цветовое пространство : YUV
    Субдискретизация насыщенности : 4: 2: 0
    Битовая глубина : 8 бит
    Тип развёртки : Прогрессивная
    Метод сжатия : С потерями
    Бит/(Пиксели*Кадры) : 0.195
    Размер потока : 451 Мбайт (84%)
    Библиотека кодирования : XviD 73
    Аудио #1
    Идентификатор : 1
    Формат : MPEG Audio
    Версия формата : Version 1
    Профиль формата : Layer 3
    Режим : Joint stereo
    Расширение режима : MS Stereo
    Идентификатор кодека : 55
    Идентификатор кодека/Подсказка : MP3
    Продолжительность : 44 м.
    Вид битрейта : Постоянный
    Битрейт : 128 Кбит/сек
    Каналы : 2 канала
    Частота : 48, 0 КГц
    Метод сжатия : С потерями
    Размер потока : 41, 1 Мбайт (8%)
    Выравнивание : Соединение по промежуткам
    Продолжительность промежутка : 40 мс. (1, 00 видеокадр)
    Время предзагрузки промежутка : 504 мс.
    Аудио #2
    Идентификатор : 2
    Формат : MPEG Audio
    Версия формата : Version 1
    Профиль формата : Layer 3
    Режим : Joint stereo
    Расширение режима : MS Stereo
    Идентификатор кодека : 55
    Идентификатор кодека/Подсказка : MP3
    Продолжительность : 44 м.
    Вид битрейта : Постоянный
    Битрейт : 128 Кбит/сек
    Каналы : 2 канала
    Частота : 48, 0 КГц
    Метод сжатия : С потерями
    Размер потока : 41, 1 Мбайт (8%)
    Выравнивание : Соединение по промежуткам
    Продолжительность промежутка : 40 мс. (1, 00 видеокадр)
    Время предзагрузки промежутка : 504 мс.
    Библиотека кодирования : LAME3.99.5ЄЄЄЄЄЄЄЄЄЄ


    Скриншоты для ознакомления




    Онлайн видео Беовульф



    Беовульф/Беовульф: Возвращение в Шилдлендс/Beowulf: Return to the Shieldlands (2016) WEB-DLRip (сезон 1, серии 1 из 13) NewStudio (обновляемая)
    загрузка...
    Рейтинг →
     (голосов: 1, оценка 4/5, голосовать можно 1 раз )

    Другие торренты по теме:

  • Беовульф / Беовульф: Возвращение в Шилдлендс / Beowulf: Return to the Shieldlands (2016) HDTVRip (сезон 1, серии 1 из 13) Jaskier (Обновляемая)
  • Беовульф / Beowulf (2007) BDRip [1080p] 3D [Вертикальная анаморфная стереопара]
  • Беовульф / Beowulf (2007) BDRemux(BDRip) 3D [1080p] [3D / 2D] [hand made 16:9]
  • Беовульф / Beowulf (1999) WEB-DLRip скачать через торрент бесплатно
  • Беовульф / Beowulf (1999) WEB-DLRip [H.264] скачать через торрент бесплатно
  • Беовульф / Beowulf (2007) Blu-ray [H.264 / 1080p] [Directors Cut] скачать через торрент бесплатно
  • Беовульф / Beowulf: Return to the Shieldlands (2016) WEB-DLRip (сезон 1, серии 1 из 13) BaibaKo (обновляемая) скачать через торрент бесплатно
  • Беовульф / Beowulf: Return to the Shieldlands (2016) WEB-DLRip [H.264] (сезон 1, серии 1 из 13) BaibaKo [MP4|720x400] скачать через торрент бесплатно


    • Комментарии (0):

      Информация

      Информация

        Посетители, находящиеся в группе Гости, не могут оставлять комментарии в данной новости.

        ↓ Меню




        ↓ Опрос

        Вы добавили сайт в закладки?
        Да
        Нет


        Top 10 за месяц (Фильмы)