.
Авторизация | Регистрация
Хочешь лучшие торренты? Добавь свой email!
Добавить

Торрент скачать бесплатно

» » Он никогда не умирал / He Never Died (2015) WEB-DLRip [H.264] скачать через торрент бесплатно




    Он никогда не умирал / He Never Died (2015) WEB-DLRip [H.264] скачать через торрент бесплатно

    Опубликовал: Админ | Дата: 31-12-2015, 04:01 | Просмотров: 126

    Производство: США, Канада
    Жанр: Триллер, Комедия, Криминал
    Режиссер: Джейсон Кравчик
    Продюсер: Зэк Хэйген, Эдриэнн Штерн, Брэндон Бэйкер

    Актеры
    Генри Роллинз, Бу Бу Стюарт, Кейт Гринхаус, Джордан Тодоси, Стивен Огг

    Описание

    Скрывшемуся от общества Джеку приходится выйти из зоны комфорта, когда в один из вторников внешний мир буквально постучал в его дверь.

    Рейтинг MPAA: R (лицам до 17 лет обязательно присутствие взрослого)
    Дата мировой премьеры: 17 марта 2015
    Релиз от: FAGOT100(NNM-CLUB)
    Продолжительность: 01: 37: 16
    Качество видео: WEB-DLRip
    Перевод: Двухголосый закадровый, любительский (Мтрск/StacyLagler)
    Субтитры: Отсутствуют
    Примечание: Внимание! Присутствует ненормативная лексика!
    Видео: AVC, 1024x428 (2.35: 1), 23.976 fps, 1 941 Kbps (0.185 bit/pixel)
    Аудио: AC-3, 48.0 KHz, 2 ch, 192 Kbps, CBR
    Исходник He.Never.Died.2015.1080p.WEB-DL.x264-DAWGS
    Код:
    Формат : Matroska
    Версия формата : Version 2
    Размер файла : 1, 45 Гбайт
    Продолжительность : 1 ч. 37 м.
    Общий поток : 2133 Кбит/сек
    Дата кодирования : UTC 2015-12-30 05:18:33
    Программа кодирования : mkvmerge v5.3.0 (\'I could have danced\') built on Feb 9 2012 10:38:07
    Библиотека кодирования : libebml v1.2.3 + libmatroska v1.3.0
    Attachment : Yes
    Видео
    Идентификатор : 1
    Формат : AVC
    Формат/Информация : Advanced Video Codec
    Профиль формата :High@L4.1
    Параметр CABAC формата : Да
    Параметр ReFrames формата : 8 кадров
    Идентификатор кодека : V_MPEG4/ISO/AVC
    Продолжительность : 1 ч. 37 м.
    Битрейт : 1941 Кбит/сек
    Ширина : 1024 пикселя
    Высота : 428 пикселей
    Соотношение сторон : 2, 40:1
    Режим частоты кадров : Постоянный
    Частота кадров : 23, 976 кадра/сек
    Цветовое пространство : YUV
    Субдискретизация насыщенности : 4:2:0
    Битовая глубина : 8 бит
    Тип развёртки : Прогрессивная
    Бит/(Пиксели*Кадры) : 0.185
    Размер потока : 1, 29 Гбайт (89%)
    Библиотека кодирования : x264 core 146 r2538 121396c
    Настройки программы : cabac=1/ref=8/deblock=1:-3:-3/analyse=0x3:0x133/me=umh/subme=10/psy=1/psy_rd=1.00:0.15/mixed_ref=1/me_range=32/chroma_me=1/trellis=2/8x8dct=1/cqm=0/deadzone=21, 11/fast_pskip=0/chroma_qp_offset=-3/threads=2/lookahead_threads=2/sliced_threads=0/nr=0/decimate=0/interlaced=0/bluray_compat=0/constrained_intra=0/bframes=6/b_pyramid=2/b_adapt=2/b_bias=0/direct=3/weightb=1/open_gop=0/weightp=2/keyint=240/keyint_min=23/scenecut=40/intra_refresh=0/rc=2pass/mbtree=0/bitrate=1941/ratetol=1.0/qcomp=0.60/qpmin=0/qpmax=69/qpstep=4/cplxblur=20.0/qblur=0.5/ip_ratio=1.40/pb_ratio=1.30/aq=2:0.70
    Default : Да
    Forced : Нет
    Аудио
    Идентификатор : 2
    Формат : AC-3
    Формат/Информация : Audio Coding 3
    Расширение режима : CM (complete main)
    Параметр Endianness формата : Big
    Идентификатор кодека : A_AC3
    Продолжительность : 1 ч. 37 м.
    Вид битрейта : Постоянный
    Битрейт : 192 Кбит/сек
    Каналы : 2 канала
    Расположение каналов : Front: L R
    Частота : 48, 0 КГц
    Битовая глубина : 16 бит
    Метод сжатия : С потерями
    Размер потока : 134 Мбайт (9%)
    Default : Да
    Forced : Нет

    Скриншоты для ознакомления



    Все одноименные релизы в NNM-Club
    Время раздачи: круглосуточно - до появления первых 3-5 скачавших

    Он никогда не умирал/He Never Died (2015) WEB-DLRip [H.264]
    загрузка...
    Рейтинг →
     (голосов: 1, оценка 4/5, голосовать можно 1 раз )

    Другие торренты по теме:

  • Оксана Гофман | Ошо: Будда-хулиган, который "никогда не рождался и никогда не умирал" (2004) [FB2] скачать через торрент бесплатно
  • Он никогда не умирал / He Never Died (2015) WEB-DLRip [H.264 / 720p-LQ] скачать через торрент бесплатно
  • Он никогда не умирал / He Never Died (2015) WEB-DL [H.264 / 1080p-LQ] скачать через торрент бесплатно
  • Он никогда не умирал / He Never Died (2015) HDRip скачать через торрент бесплатно
  • Он никогда не умирал / He Never Died (2015) HDRip [H.264] [EN / RU Sub] скачать через торрент бесплатно
  • Он никогда не умирал / He Never Died (2015) WEB-DLRip [H.264 / 720p-LQ] [EN / RU Sub] скачать через торрент бесплатно
  • Он никогда не умирал / He Never Died (2015) WEB-DL [H.264 / 1080p-LQ] [EN / RU Sub] скачать через торрент бесплатно
  • Он никогда не умирал / He Never Died (2015) BDRip [H.264 / 1080p] [EN]


    • Комментарии (0):

      Информация

      Информация

        Посетители, находящиеся в группе Гости, не могут оставлять комментарии в данной новости.

        ↓ Меню




        ↓ Опрос

        Вы добавили сайт в закладки?
        Да
        Нет


        Top 10 за месяц (Фильмы)