.
Авторизация | Регистрация
Хочешь лучшие торренты? Добавь свой email!
Добавить

Торрент скачать бесплатно

» » Он никогда не умирал / He Never Died (2015) WEB-DL [H.264 / 1080p-LQ] скачать через торрент бесплатно




    Он никогда не умирал / He Never Died (2015) WEB-DL [H.264 / 1080p-LQ] скачать через торрент бесплатно

    Опубликовал: Админ | Дата: 31-12-2015, 04:01 | Просмотров: 51

    Производство: США, Канада
    Жанр: Триллер, драма, комедия
    Режиссер: Джейсон Кравчик

    Актеры
    Бу Бу Стюарт, Генри Роллинз, Стивен Огг, Джордан Тодоси, Джеймс Кейд, Майкл Крэм, Чантал Крэйг, Дэн Петронижевич, Тамара Альмейда, Кейт Гринхаус

    Описание
    Кровь необходима герою для того, чтобы продлить свое существование. Однако долгая жизнь имеет свои недостатки, главный из них – скука, от которой не спасают ни крепкий здоровый сон, ни просмотр телешоу, ни участие в лотереях. Так стоит ли такая жизнь того, чтобы продолжать ее? Кажется, герой и сам хотел бы узнать ответ на этот вопрос. Но вместо этого Джек вынужден решать целый ворох проблем, свалившихся на него с появлением девушки по имени Андреа, утверждающей, что он – ее отец.

    Дата мировой премьеры: 17 марта 2015
    Продолжительность: 01: 37: 16
    Качество видео: WEB-DL (1080p-LQ)
    Перевод: Профессиональный многоголосый (Paradox Recent Films)
    Субтитры: Отсутствуют
    Видео: AVC, 1920x818 (2.35: 1), 23.976 fps, 4 344 Kbps (0.115 bit/pixel)
    Аудио #1: AC-3, 48.0 KHz, 2 ch, 384 Kbps, CBR | Русский
    Аудио #2: AC-3, 48.0 KHz, 6 ch, 384 Kbps, CBR | Английский

    Общее
    Уникальный идентификатор : 251817953962412951575209262682550168855 (0xBD725FB1D1AEDE2B82AC3AD13C21ED17)
    Полное имя : C: NNMОн никогда не умиралOn ne umiral 2015 WEB-DL 1080p-LQ.mkv
    Формат : Matroska
    Версия формата : Version 2
    Размер файла : 3, 54 Гбайт
    Продолжительность : 1 ч. 37 м.
    Общий поток : 5216 Кбит/сек
    Дата кодирования : UTC 2015-12-29 18: 41: 24
    Программа кодирования : mkvmerge v8.3.0 (\'Over the Horizon\') 64bit
    Библиотека кодирования : libebml v1.3.1 + libmatroska v1.4.2
    DURATION : 01: 37: 16.032000000
    NUMBER_OF_FRAMES : 182376
    NUMBER_OF_BYTES : 280129536
    _STATISTICS_WRITING_APP : mkvmerge v8.3.0 (\'Over the Horizon\') 64bit
    _STATISTICS_WRITING_DATE_UTC : 2015-12-29 18: 41: 24
    _STATISTICS_TAGS : BPS DURATION NUMBER_OF_FRAMES NUMBER_OF_BYTES
    Видео
    Идентификатор : 1
    Формат : AVC
    Формат/Информация : Advanced Video Codec
    Профиль формата : High@L4.0
    Параметр CABAC формата : Да
    Параметр ReFrames формата : 5 кадров
    Идентификатор кодека : V_MPEG4/ISO/AVC
    Продолжительность : 1 ч. 37 м.
    Битрейт : 4344 Кбит/сек
    Ширина : 1920 пикселей
    Высота : 818 пикселей
    Соотношение сторон : 2, 35: 1
    Частота кадров : 23, 976 кадра/сек
    Цветовое пространство : YUV
    Субдискретизация насыщенности : 4: 2: 0
    Битовая глубина : 8 бит
    Тип развёртки : Прогрессивная
    Бит/(Пиксели*Кадры) : 0.115
    Размер потока : 2, 95 Гбайт (83%)
    Язык : English
    Default : Да
    Forced : Нет
    Основные цвета : BT.709-5, BT.1361, IEC 61966-2-4, SMPTE RP177
    Характеристики трансфера : BT.709-5, BT.1361
    Коэффициенты матрицы : BT.709-5, BT.1361, IEC 61966-2-4 709, SMPTE RP177
    Аудио #1
    Идентификатор : 2
    Формат : AC-3
    Формат/Информация : Audio Coding 3
    Расширение режима : CM (complete main)
    Идентификатор кодека : A_AC3
    Продолжительность : 1 ч. 37 м.
    Вид битрейта : Постоянный
    Битрейт : 384 Кбит/сек
    Каналы : 2 канала
    Расположение каналов : Front: L R
    Частота : 48, 0 КГц
    Битовая глубина : 16 бит
    Метод сжатия : С потерями
    Размер потока : 267 Мбайт (7%)
    Язык : Russian
    Default : Да
    Forced : Нет
    Аудио #2
    Идентификатор : 3
    Формат : AC-3
    Формат/Информация : Audio Coding 3
    Расширение режима : CM (complete main)
    Идентификатор кодека : A_AC3
    Продолжительность : 1 ч. О таком странном сюжете не догадывалась даже Шакира. 37 м.
    Вид битрейта : Постоянный
    Битрейт : 384 Кбит/сек
    Каналы : 6 каналов
    Расположение каналов : Front: L C R, Side: L R, LFE
    Частота : 48, 0 КГц
    Битовая глубина : 16 бит
    Метод сжатия : С потерями
    Размер потока : 267 Мбайт (7%)
    Язык : English
    Default : Нет
    Forced : Нет

    Скриншоты для ознакомления


    Время раздачи: Круглосуточно до 10 скачавших

    Все одноименные релизы в NNM-Club

    Он никогда не умирал/He Never Died (2015) WEB-DL [H.264/1080p-LQ]
    загрузка...
    Рейтинг →
     (голосов: 1, оценка 5/5, голосовать можно 1 раз )

    Другие торренты по теме:

  • Оксана Гофман | Ошо: Будда-хулиган, который "никогда не рождался и никогда не умирал" (2004) [FB2] скачать через торрент бесплатно
  • Он никогда не умирал / He Never Died (2015) WEB-DLRip [H.264 / 720p-LQ] скачать через торрент бесплатно
  • Он никогда не умирал / He Never Died (2015) WEB-DLRip [H.264] скачать через торрент бесплатно
  • Он никогда не умирал / He Never Died (2015) HDRip скачать через торрент бесплатно
  • Он никогда не умирал / He Never Died (2015) HDRip [H.264] [EN / RU Sub] скачать через торрент бесплатно
  • Он никогда не умирал / He Never Died (2015) WEB-DLRip [H.264 / 720p-LQ] [EN / RU Sub] скачать через торрент бесплатно
  • Он никогда не умирал / He Never Died (2015) WEB-DL [H.264 / 1080p-LQ] [EN / RU Sub] скачать через торрент бесплатно
  • Он никогда не умирал / He Never Died (2015) BDRip [H.264 / 1080p] [EN]


    • Комментарии (0):

      Информация

      Информация

        Посетители, находящиеся в группе Гости, не могут оставлять комментарии в данной новости.

        ↓ Меню




        ↓ Опрос

        Вы добавили сайт в закладки?
        Да
        Нет


        Top 10 за месяц (Фильмы)