.
Авторизация | Регистрация
Хочешь лучшие торренты? Добавь свой email!
Добавить

Торрент скачать бесплатно

» » Второй шанс / Second Chance (2016) HDTVRip (сезон 1, серии 1 из 13) NewStudio (обновляемая) скачать через торрент бесплатно




    Второй шанс / Second Chance (2016) HDTVRip (сезон 1, серии 1 из 13) NewStudio (обновляемая) скачать через торрент бесплатно

    Опубликовал: Админ | Дата: 30-12-2015, 04:00 | Просмотров: 591

    Производство: США/20th Century Fox Television, Fox Television, Teakwood Lane Productions
    Жанр: ужасы, фантастика, драма
    Режиссер: Сара Пиа Андерсон, Майкл Куэста, Адам Кэйн

    Актеры
    Роберт Казински, Адхир Кальян, Тим ДиКей, Дилшад Вадсариа, Филип Бейкер Холл, Сиэра Браво, Хезер Д. Бенуа и др.

    Описание

    Когда 75-летнего шерифа убивают, он обретает шанс на новую жизнь. Учёные возвращают его в мир живых — он становится своеобразной версией Франкенштейна, получившей сверхсилу и вернувшей молодость. Теперь главному герою этой истории предстоит разобраться в том, по какой причине и кто именно его убил.

    Дата мировой премьеры: 13 января 2016
    Продолжительность: ~00: 45: 00 серия
    Качество видео: HDTVRip
    Перевод: Многоголосый закадровый, профессиональный -NewStudio
    Автор перевода: Алексей Корягин
    Видео: XviD, 720x400 (16: 9), ~1400 kb/s
    Аудио Rus: MPEG Layer 3, 48, 0 kHz, 2 ch, 128 kb/s — многоголосый закадровый
    Аудио Eng: MPEG Layer 3, 48, 0 kHz, 2 ch, 128 kb/s — оригинал
    Общее
    Полное имя : D: Второй шанс (сезон любимого сериала 1) Second Chance (2016) HDTVRip - NewStudioSecond.Chance.S01E01.HDTVRip.Rus.Eng.DV.NewStudio.avi
    Формат : AVI
    Формат/Информация : Audio Video Interleave
    Размер файла : 539 Мбайт
    Продолжительность : 45 м.
    Общий поток : 1673 Кбит/сек
    Программа кодирования : VirtualDubModRus 1.5.10.2 (build 2542/release)
    Библиотека кодирования : VirtualDubMod build 2542/release
    Видео
    Идентификатор : 0
    Формат : MPEG-4 Visual
    Профиль формата : Advanced Simple@L5
    Параметр BVOP формата : 2
    Параметр QPel формата : Нет
    Параметр GMC формата : Без точки перехода
    Параметр матрицы формата : Default (MPEG)
    Идентификатор кодека : XVID
    Идентификатор кодека/Подсказка : XviD
    Продолжительность : 45 м.
    Битрейт : 1403 Кбит/сек
    Ширина : 720 пикселей
    Высота : 400 пикселей
    Соотношение сторон : 16: 9
    Частота кадров : 23, 976 (23976/1000) кадра/сек
    Цветовое пространство : YUV
    Субдискретизация насыщенности : 4: 2: 0
    Битовая глубина : 8 бит
    Тип развёртки : Прогрессивная
    Метод сжатия : С потерями
    Бит/(Пиксели*Кадры) : 0.203
    Размер потока : 452 Мбайт (84%)
    Библиотека кодирования : XviD 73
    Аудио #1
    Идентификатор : 1
    Формат : MPEG Audio
    Версия формата : Version 1
    Профиль формата : Layer 3
    Режим : Joint stereo
    Расширение режима : MS Stereo
    Идентификатор кодека : 55
    Идентификатор кодека/Подсказка : MP3
    Продолжительность : 45 м.
    Вид битрейта : Постоянный
    Битрейт : 128 Кбит/сек
    Каналы : 2 канала
    Частота : 48, 0 КГц
    Метод сжатия : С потерями
    Размер потока : 41, 2 Мбайт (8%)
    Выравнивание : Соединение по промежуткам
    Продолжительность промежутка : 42 мс. (1, 00 видеокадр)
    Время предзагрузки промежутка : 504 мс.
    Аудио #2
    Идентификатор : 2
    Формат : MPEG Audio
    Версия формата : Version 1
    Профиль формата : Layer 3
    Режим : Joint stereo
    Расширение режима : MS Stereo
    Идентификатор кодека : 55
    Идентификатор кодека/Подсказка : MP3
    Продолжительность : 45 м.
    Вид битрейта : Постоянный
    Битрейт : 128 Кбит/сек
    Каналы : 2 канала
    Частота : 48, 0 КГц
    Метод сжатия : С потерями
    Размер потока : 41, 2 Мбайт (8%)
    Выравнивание : Соединение по промежуткам
    Продолжительность промежутка : 42 мс. (1, 00 видеокадр)
    Время предзагрузки промежутка : 504 мс.


    Скриншоты для ознакомления




    Онлайн видео Второй шанс



    Второй шанс/Second Chance (2016) HDTVRip (сезон 1, серии 1 из 13) NewStudio (обновляемая)
    загрузка...
    Рейтинг →
     (голосов: 1, оценка 3/5, голосовать можно 1 раз )

    Другие торренты по теме:

  • Второй шанс / Danny Collins (2015) WEBRip [Line] скачать через торрент бесплатно
  • Второй шанс / Danny Collins (2015) WEB-DL [H.264 / 720p-LQ] скачать через торрент бесплатно
  • Второй шанс / Danny Collins (2015) WEB-DL [720p] ATV скачать через торрент бесплатно
  • Второй шанс / Danny Collins (2015) WEB-DL [H.264 / 1080p-LQ] скачать через торрент бесплатно
  • Второй шанс / Danny Collins (2015) WEB-DLRip скачать через торрент бесплатно
  • Второй шанс / Danny Collins (2014) WEB-DLRip скачать через торрент бесплатно
  • Второй шанс / En chance til (2014) HDRip скачать через торрент бесплатно
  • Второй шанс / En chance til (2014) WEB-DL [H.264 / 1080p-LQ] [VO] скачать через торрент бесплатно


    • Комментарии (0):

      Информация

      Информация

        Посетители, находящиеся в группе Гости, не могут оставлять комментарии в данной новости.

        ↓ Меню




        ↓ Опрос

        Вы добавили сайт в закладки?
        Да
        Нет


        Top 10 за месяц (Фильмы)