.
Авторизация | Регистрация
Хочешь лучшие торренты? Добавь свой email!
Добавить

Торрент скачать бесплатно

» » Все могут короли (2015) HDTVRip (серии 1-3 из 9) (обновляемая) скачать через торрент бесплатно




    Все могут короли (2015) HDTVRip (серии 1-3 из 9) (обновляемая) скачать через торрент бесплатно

    Опубликовал: Админ | Дата: 30-12-2015, 04:00 | Просмотров: 60

    Производство: Россия/Марс Медиа Энтертейнмент
    Жанр: комедия
    Режиссер: Алан Смити

    Актеры
    Максим Галкин, Александр Балуев, Мария Сёмкина, Полина Филоненко, Александр Сирин, Татьяна Рудина, Александр Пацевич, Светлана Косолапова, Любовь Германова, Дмитрий Мухамадеев, Алексей Весёлкин мл., Максим Севриновский, Николай Сахаров, Сергей Брюн, Дмитрий Соломыкин, Андрей Заводюк, Александр Ткачёв, Александр Булатов и др.

    Описание

    Что случится, если поменять местами средневекового герцога Майкла Каннингема и простого московского менеджера Мишу Николаева, похожих друг на друга как две капли воды? Очень многое!
    Этим двоим предстоит преодолеть сложнейшие обстоятельства, чтобы вписаться в совершенно новую реальность, ведь Миша раньше никогда не правил герцогством, а Майкл, наследник древнего английского рода, вынужден включаться в жизнь мегаполиса, осваивать гаджеты и как черноморская пена искать общий язык с современными девушками.
    На пути домой Майкла и Мишу ожидает множество головокружительных приключений, дружба, предательство, интриги и, конечно, настоящая любовь. О таком странном сюжете не догадывалась даже Верка Сердючка. Возможно, благодаря им изменится вся мировая история, но непременно к лучшему!

    Дата премьеры в России: 28 декабря 2015
    Продолжительность: ~00: 42: 00 серия
    Качество видео: HDTVRip
    Видео: XVID, 720х400 (16: 9), ~1800 kbps
    Аудио: AC3, 2 ch, 192 kbps, CBR
    Код:
    Общее
    Полное имя : E:DOWNLOADSВсе могут короли (2015) HDTVRipВсе могут короли - 01 серия.avi
    Формат : AVI
    Формат/Информация : Audio Video Interleave
    Размер файла : 592 Мбайт
    Продолжительность : 41 м.
    Общий поток : 2004 Кбит/сек
    Программа кодирования : VirtualDubMod 1.5.10.3 |www.virtualdub-fr.org|| (build 2550/release)
    Библиотека кодирования : VirtualDubMod build 2550/release
    Видео
    Идентификатор : 0
    Формат : MPEG-4 Visual
    Профиль формата : Advanced Simple@L5
    Параметр BVOP формата : 1
    Параметр QPel формата : Нет
    Параметр GMC формата : Без точки перехода
    Параметр матрицы формата : Default (MPEG)
    Идентификатор кодека : XVID
    Идентификатор кодека/Подсказка : XviD
    Продолжительность : 41 м.
    Битрейт : 1802 Кбит/сек
    Ширина : 720 пикселей
    Высота : 400 пикселей
    Соотношение сторон : 16:9
    Частота кадров : 25, 000 кадров/сек
    Цветовое пространство : YUV
    Субдискретизация насыщенности : 4:2:0
    Битовая глубина : 8 бит
    Тип развёртки : Прогрессивная
    Метод сжатия : С потерями
    Бит/(Пиксели*Кадры) : 0.250
    Размер потока : 532 Мбайт (90%)
    Библиотека кодирования : XviD 73
    Аудио
    Идентификатор : 1
    Формат : AC-3
    Формат/Информация : Audio Coding 3
    Расширение режима : CM (complete main)
    Параметр Endianness формата : Big
    Идентификатор кодека : 2000
    Продолжительность : 41 м.
    Вид битрейта : Постоянный
    Битрейт : 192 Кбит/сек
    Каналы : 2 канала
    Расположение каналов : Front: L R
    Частота : 48, 0 КГц
    Метод сжатия : С потерями
    Размер потока : 56, 7 Мбайт (10%)
    Выравнивание : Разделение по промежуткам
    Продолжительность промежутка : 40 мс. (1, 00 видеокадр)
    Время предзагрузки промежутка : 500 мс.


    Скриншоты для ознакомления




    Онлайн видео Все могут короли (2015) HDTVRip (серии 1



    Все могут короли (2015) HDTVRip (серии 1-3 из 9) (обновляемая)
    загрузка...
    Рейтинг →
     (голосов: 1, оценка 4/5, голосовать можно 1 раз )

    Другие торренты по теме:

  • Все могут короли (2015) HDTVRip [H.264 / 720p-LQ] (серии 1-3 из 9) (обновляемая) скачать через торрент бесплатно
  • Все могут короли (2015) HDTVRip [H.264] (серии 1-3 из 9) (обновляемая) скачать через торрент бесплатно
  • Все могут короли (2015) HDTV [H.264 / 1080i-LQ] (серии 1-3 из 9) (обновляемая) скачать через торрент бесплатно
  • Всё могут короли (2015) SATRip (серии 1-9 из 9) скачать через торрент бесплатно
  • Все могут короли (2015) SATRip [H.264] (серии 1-9 из 9) скачать через торрент бесплатно
  • Все могут короли (2015) WEB-DLRip (серии 1-12 из 12)
  • Все могут короли (2015) WEB-DLRip [H.264 / 720p-LQ] (серии 1-12 из 12)
  • Право голоса. "Всё могут короли" (29.04.2016) SATRip


    • Комментарии (0):

      Информация

      Информация

        Посетители, находящиеся в группе Гости, не могут оставлять комментарии в данной новости.

        ↓ Меню




        ↓ Опрос

        Вы добавили сайт в закладки?
        Да
        Нет


        Top 10 за месяц (Фильмы)