.
Авторизация | Регистрация
Хочешь лучшие торренты? Добавь свой email!
Добавить

Торрент скачать бесплатно

» » Игра на миллионы (1991) TVRip [H.264] скачать через торрент бесплатно




    Игра на миллионы (1991) TVRip [H.264] скачать через торрент бесплатно

    Опубликовал: Админ | Дата: 30-12-2015, 04:00 | Просмотров: 65

    Производство: СССР
    Жанр: Комедия, Криминал
    Режиссер: Геннадий Байсак

    Актеры
    Александр Демьяненко, Владимир Долинский, Алексей Петренко, Анна Назарьева, Сергей Габриэлян, Валерий Баринов, Мария Виноградова, Олег Шкловский, Сергей Николаев, Роман Мадянов

    Описание

    Две шайки профессиональных рэкетиров занимаются грабежом сберкасс в небольшом курортном городе, конкурируя друг с другом и не подозревая, что работают на одного хозяина.
    И тем и другим мешает ветеринар Максимкин. Влюбленный в Люсю супермен берет кассу одну за другой, будучи уверен в том, что только он один может сделать Люсю счастливой.

    Продолжительность: 01: 34: 17
    Качество видео: TVRip
    Видео: AVC/H.264, 720x536, ~1040 Kbps
    Аудио: AC3, 2 ch, 128 kbps, CBR
    Код:

    General
    Unique ID : 246345312609924423728132757271902468898 (0xB95461A4D6B460A68C4A90CCF3D8BB22)
    Complete name : Игра на миллионы.mkv
    Format : Matroska
    Format version : Version 4/Version 2
    File size : 788 MiB
    Duration : 1h 34mn
    Overall bit rate : 1 169 Kbps
    Movie name : Игра на миллионы (rip by smithland)
    Encoded date : UTC 2015-12-29 20:17:58
    Writing application : mkvmerge v8.5.2 (\'Crosses\') 64bit
    Writing library : libebml v1.3.3 + libmatroska v1.4.4
    Attachements : cover.png
    DURATION : 01:34:17.056000000
    NUMBER_OF_FRAMES : 176783
    NUMBER_OF_BYTES : 90512896
    _STATISTICS_WRITING_APP : mkvmerge v8.5.2 (\'Crosses\') 64bit
    _STATISTICS_WRITING_DATE_UTC : 2015-12-29 20:17:58
    _STATISTICS_TAGS : BPS DURATION NUMBER_OF_FRAMES NUMBER_OF_BYTES
    Video
    ID : 1
    Format : AVC
    Format/Info : Advanced Video Codec
    Format profile : High@L4
    Format settings, CABAC : Yes
    Format settings, ReFrames : 10 frames
    Codec ID : V_MPEG4/ISO/AVC
    Duration : 1h 34mn
    Bit rate : 1 040 Kbps
    Width : 720 pixels
    Height : 536 pixels
    Display aspect ratio : 4:3
    Frame rate mode : Constant
    Frame rate : 25.000 fps
    Color space : YUV
    Chroma subsampling : 4:2:0
    Bit depth : 8 bits
    Scan type : Progressive
    Bits/(Pixel*Frame) : 0.108
    Stream size : 686 MiB (87%)
    Writing library : x264 core 146 r2538 121396c
    Encoding settings : cabac=1/ref=10/deblock=1:-2:-1/analyse=0x3:0x133/me=umh/subme=11/psy=1/psy_rd=1.30:0.35/mixed_ref=1/me_range=30/chroma_me=1/trellis=2/8x8dct=1/cqm=0/deadzone=21, 11/fast_pskip=1/chroma_qp_offset=-4/threads=12/lookahead_threads=1/sliced_threads=0/nr=0/decimate=0/interlaced=0/bluray_compat=0/constrained_intra=0/bframes=7/b_pyramid=2/b_adapt=1/b_bias=0/direct=1/weightb=1/open_gop=1/weightp=2/keyint=250/keyint_min=25/scenecut=40/intra_refresh=0/rc_lookahead=40/rc=abr/mbtree=1/bitrate=1040/ratetol=1.0/qcomp=0.60/qpmin=0/qpmax=69/qpstep=4/ip_ratio=1.40/aq=1:1.20
    Language : Russian
    Default : Yes
    Forced : Yes
    Color range : Limited
    Color primaries : Generic film
    Audio
    ID : 2
    Format : AC-3
    Format/Info : Audio Coding 3
    Mode extension : CM (complete main)
    Format settings, Endianness : Big
    Codec ID : A_AC3
    Duration : 1h 34mn
    Bit rate mode : Constant
    Bit rate : 128 Kbps
    Channel(s) : 2 channels
    Channel positions : Front: L R
    Sampling rate : 48.0 KHz
    Compression mode : Lossy
    Stream size : 86.3 MiB (11%)
    Language : Russian
    Default : Yes
    Forced : Yes


    Скриншоты для ознакомления




    Игра на миллионы (1991) TVRip [H.264]
    загрузка...
    Рейтинг →
     (голосов: 1, оценка 5/5, голосовать можно 1 раз )

    Другие торренты по теме:

  • Академия SEO | SEO Игра. Самая масштабная тренинг-игра в СНГ (2017) PCRec
  • Игра в классики / Hopscotch (1980) DVDRip [H.264] [VO]
  • Игра без правил (1965) DVBRip
  • Что Где Когда Осенняя серия игр. Игра 4 (2014.09.27) SATRip
  • Настольная игра | Munchkin / Манчкин (Fallout) (2014) [JPEG, DOC]
  • Екатерина Федорова | Игра на волшебной флейте [Полный комплект] (2013) CamRip [H.264]
  • КВН-2014. Высшая лига. 1 / 2 финала. Первая игра (2014.10.05) SATRip скачать через торрент бесплатно
  • КВН-2014. Высшая лига. 1 / 2 финала. Первая игра (2014.10.05) HDTVRip [H.264 / 720p-LQ]


    • Комментарии (0):

      Информация

      Информация

        Посетители, находящиеся в группе Гости, не могут оставлять комментарии в данной новости.

        ↓ Меню




        ↓ Опрос

        Вы добавили сайт в закладки?
        Да
        Нет


        Top 10 за месяц (Фильмы)