.
Авторизация | Регистрация
Хочешь лучшие торренты? Добавь свой email!
Добавить

Торрент скачать бесплатно

» » Диккенсовщина / Из-под пера Диккенса / Dickensian (2015) WEB-DLRip (сезон 1, серии 1 из 20) NewStudio (обновляемая) скачать через торрент бесплатно




    Диккенсовщина / Из-под пера Диккенса / Dickensian (2015) WEB-DLRip (сезон 1, серии 1 из 20) NewStudio (обновляемая) скачать через торрент бесплатно

    Опубликовал: Админ | Дата: 29-12-2015, 04:00 | Просмотров: 84

    Производство: Великобритания/Red Planet Pictures
    Жанр: драма
    Режиссер: Гарри Брэдбир, Марк Брозел, Филиппа Лангдэйл

    Актеры
    Стивен Ри, Пол Ланкастер, Антония Бернат, Бенжамин Кэмпбелл, Заак Конуэй, Ричард Каннингэм, Фиби Дайневор, Имоджен Файрес, Аттила Дж. Керекеш, Бен Старр, Дженнифер Хеннесси, Марк Стенли, Джозеф Куинн и др.

    Описание

    Обширная литературная вселенная Чарльза Диккенса, населённая большим количеством всем хорошо знакомых персонажей, объединена в рамках одного сериала.

    Дата мировой премьеры: 26 декабря 2015
    Продолжительность: ~00: 29: 00 серия
    Качество видео: WEB-DLRip
    Перевод: Многоголосый закадровый, профессиональный -NewStudio
    Автор перевода: Юля Мейер
    Видео: XviD, 720x400 (16: 9), ~1361 kb/s
    Аудио Rus: MPEG Layer 3, 48, 0 kHz, 2 ch, 128 kb/s — многоголосый закадровый
    Аудио Eng: MPEG Layer 3, 48, 0 kHz, 2 ch, 128 kb/s — оригинал
    Общее
    Полное имя : D: Диккенсовщина (сезон любимого сериала 1) Dickensian (2015) WEB-DLRip - NewStudioDickensian.S01E01.WEBDLRip.Rus.Eng.DV.NewStudio.avi
    Формат : AVI
    Формат/Информация : Audio Video Interleave
    Размер файла : 336 Мбайт
    Продолжительность : 28 м.
    Общий поток : 1632 Кбит/сек
    Программа кодирования : VirtualDubModRus 1.5.10.2 (build 2542/release)
    Библиотека кодирования : VirtualDubMod build 2542/release
    Видео
    Идентификатор : 0
    Формат : MPEG-4 Visual
    Профиль формата : Advanced Simple@L5
    Параметр BVOP формата : 2
    Параметр QPel формата : Нет
    Параметр GMC формата : Без точки перехода
    Параметр матрицы формата : Default (MPEG)
    Идентификатор кодека : XVID
    Идентификатор кодека/Подсказка : XviD
    Продолжительность : 28 м.
    Битрейт : 1361 Кбит/сек
    Ширина : 720 пикселей
    Высота : 400 пикселей
    Соотношение сторон : 16: 9
    Частота кадров : 25, 000 кадров/сек
    Цветовое пространство : YUV
    Субдискретизация насыщенности : 4: 2: 0
    Битовая глубина : 8 бит
    Тип развёртки : Прогрессивная
    Метод сжатия : С потерями
    Бит/(Пиксели*Кадры) : 0.189
    Размер потока : 280 Мбайт (83%)
    Библиотека кодирования : XviD 73
    Аудио #1
    Идентификатор : 1
    Формат : MPEG Audio
    Версия формата : Version 1
    Профиль формата : Layer 3
    Режим : Joint stereo
    Расширение режима : MS Stereo
    Идентификатор кодека : 55
    Идентификатор кодека/Подсказка : MP3
    Продолжительность : 28 м.
    Вид битрейта : Постоянный
    Битрейт : 128 Кбит/сек
    Каналы : 2 канала
    Частота : 48, 0 КГц
    Метод сжатия : С потерями
    Размер потока : 26, 3 Мбайт (8%)
    Выравнивание : Соединение по промежуткам
    Продолжительность промежутка : 40 мс. (1, 00 видеокадр)
    Время предзагрузки промежутка : 504 мс.
    Аудио #2
    Идентификатор : 2
    Формат : MPEG Audio
    Версия формата : Version 1
    Профиль формата : Layer 3
    Режим : Joint stereo
    Расширение режима : MS Stereo
    Идентификатор кодека : 55
    Идентификатор кодека/Подсказка : MP3
    Продолжительность : 28 м.
    Вид битрейта : Постоянный
    Битрейт : 128 Кбит/сек
    Каналы : 2 канала
    Частота : 48, 0 КГц
    Метод сжатия : С потерями
    Размер потока : 26, 3 Мбайт (8%)
    Выравнивание : Соединение по промежуткам
    Продолжительность промежутка : 40 мс. (1, 00 видеокадр)
    Время предзагрузки промежутка : 504 мс.


    Скриншоты для ознакомления




    Онлайн видео Диккенсовщина



    Диккенсовщина/Из-под пера Диккенса/Dickensian (2015) WEB-DLRip (сезон 1, серии 1 из 20) NewStudio (обновляемая)
    загрузка...
    Рейтинг →
     (голосов: 1, оценка 5/5, голосовать можно 1 раз )

    Другие торренты по теме:



      Комментарии (0):

      Информация

      Информация

        Посетители, находящиеся в группе Гости, не могут оставлять комментарии в данной новости.

        ↓ Меню




        ↓ Опрос

        Вы добавили сайт в закладки?
        Да
        Нет


        Top 10 за месяц (Фильмы)