.
Авторизация | Регистрация
Хочешь лучшие торренты? Добавь свой email!
Добавить

Торрент скачать бесплатно

» » Иррациональный человек / Irrational Man (2015) BDRip [H.264 / 720p] [Line] скачать через торрент бесплатно




    Иррациональный человек / Irrational Man (2015) BDRip [H.264 / 720p] [Line] скачать через торрент бесплатно

    Опубликовал: Админ | Дата: 29-12-2015, 04:00 | Просмотров: 1336

    Производство: США, Gravier Productions
    Жанр: Детектив, Драма
    Режиссер: Вуди Аллен

    Актеры
    Хоакин Феникс, Эмма Стоун, Джейми Блэкли, Паркер Поузи, Джо Степлтон, Нэнси Кэрролл, Эллисон Галлерани, Бригитт Ланди-Пейн, Кэтлин Семер, Бетси Айдем, Итэн Филлипс, Леа Андерсон

    Описание

    Профессор философии Эйб Лукас опустошен: он не видит в своей жизни ни радости, ни смысла. На лето Эйб приезжает преподавать в небольшой колледж, где у него завязываются отношения с двумя очень разными женщинами. Рита, его новая коллега, воображает, что именно он вызволит ее из несчастливого брака. А Джилл, его лучшая студентка, становится ему ближайшим другом. Но девушку неодолимо притягивают мятущаяся творческая натура Эйба и его загадочное прошлое, и она все больше отдаляется от своего бойфренда, Роя… Все меняет невольно подслушанный Эйбом и Джилл разговор, после которого Эйб, стряхнув с себя равнодушие и отчаяние, решает действовать… Абсолютно иррационально.

    Возраст: 18+ (зрителям, достигшим 18 лет. запрещено для детей)
    Рейтинг MPAA: R (лицам до 17 лет обязательно присутствие взрослого)
    Дата мировой премьеры: 15 мая 2015
    Дата премьеры в России: 13 августа 2015 Централ Партнершип

    Релиз от: Электричка Rustorrents
    Продолжительность: 01: 34: 50
    Качество видео: BDRip
    Перевод: Дублированный (Чистый звук)
    Язык субтитров: Русский
    Вид субтитров: Вшитые, отключаемые
    Видео: H.264/AVC, 1280x536, 5088 Kbps
    Аудио 1: AC3, 192 Kbps (2 ch) - русский
    Аудио 2: DTS, 1509 Kbps (6 ch) - оригинал (английский)
    Код:

    Общее
    Уникальный идентификатор : 230724851931826860850291569612674080447 (0xAD93FD78D4AF274785AB18D234449EBF)
    Полное имя : D:Irracionalnyi.Chelovek.Irrational.Man.(2015).BDRip.[H.264.720p].mkv
    Формат : Matroska
    Версия формата : Version 4/Version 2
    Размер файла : 4, 50 Гбайт
    Продолжительность : 1 ч. 34 м.
    Общий поток : 6787 Кбит/сек
    Дата кодирования : UTC 2015-12-26 17:33:34
    Программа кодирования : mkvmerge v8.6.1 (\'Flying\') 64bit
    Библиотека кодирования : libebml v1.3.3 + libmatroska v1.4.4
    Видео
    Идентификатор : 1
    Формат : AVC
    Формат/Информация : Advanced Video Codec
    Профиль формата :High@L4.1
    Параметр CABAC формата : Да
    Параметр ReFrames формата : 5 кадров
    Идентификатор кодека : V_MPEG4/ISO/AVC
    Продолжительность : 1 ч. 34 м.
    Битрейт : 5088 Кбит/сек
    Ширина : 1280 пикселей
    Высота : 536 пикселей
    Соотношение сторон : 2, 40:1
    Режим частоты кадров : Переменный
    Частота кадров : 23, 976 кадра/сек
    Цветовое пространство : YUV
    Субдискретизация насыщенности : 4:2:0
    Битовая глубина : 8 бит
    Тип развёртки : Прогрессивная
    Бит/(Пиксели*Кадры) : 0.309
    Размер потока : 3, 37 Гбайт (75%)
    Библиотека кодирования : x264 core 148 r2638 7599210
    Настройки программы : cabac=1/ref=5/deblock=1:0:0/analyse=0x3:0x133/me=umh/subme=7/psy=1/psy_rd=1.00:0.00/mixed_ref=1/me_range=16/chroma_me=1/trellis=1/8x8dct=1/cqm=0/deadzone=21, 11/fast_pskip=0/chroma_qp_offset=-2/threads=12/lookahead_threads=2/sliced_threads=0/nr=0/decimate=1/interlaced=0/bluray_compat=0/constrained_intra=0/bframes=3/b_pyramid=2/b_adapt=1/b_bias=0/direct=1/weightb=1/open_gop=0/weightp=2/keyint=250/keyint_min=23/scenecut=40/intra_refresh=0/rc_lookahead=40/rc=2pass/mbtree=1/bitrate=5088/ratetol=1.0/qcomp=0.60/qpmin=0/qpmax=69/qpstep=4/cplxblur=20.0/qblur=0.5/ip_ratio=1.40/aq=1:1.00
    Язык : English
    Default : Да
    Forced : Нет
    Аудио #1
    Идентификатор : 2
    Формат : AC-3
    Формат/Информация : Audio Coding 3
    Расширение режима : CM (complete main)
    Параметр Endianness формата : Big
    Идентификатор кодека : A_AC3
    Продолжительность : 1 ч. 34 м.
    Вид битрейта : Постоянный
    Битрейт : 192 Кбит/сек
    Каналы : 2 канала
    Расположение каналов : Front: L R
    Частота : 48, 0 КГц
    Частота кадров : 31, 250 кадров/сек (1536 spf)
    Метод сжатия : С потерями
    Размер потока : 130 Мбайт (3%)
    Язык : Russian
    Default : Да
    Forced : Нет
    Аудио #2
    Идентификатор : 3
    Формат : DTS
    Формат/Информация : Digital Theater Systems
    Режим : 16
    Параметр Endianness формата : Big
    Идентификатор кодека : A_DTS
    Продолжительность : 1 ч. 34 м.
    Вид битрейта : Постоянный
    Битрейт : 1509 Кбит/сек
    Каналы : 6 каналов
    Расположение каналов : Front: L C R, Side: L R, LFE
    Частота : 48, 0 КГц
    Частота кадров : 93, 750 кадра/сек (512 spf)
    Битовая глубина : 24 бит
    Метод сжатия : С потерями
    Размер потока : 1023 Мбайт (22%)
    Язык : English
    Default : Нет
    Forced : Нет
    Текст
    Идентификатор : 4
    Формат : UTF-8
    Идентификатор кодека : S_TEXT/UTF8
    Идентификатор кодека/Информация : UTF-8 Plain Text
    Продолжительность : 1 ч. 16 м.
    Битрейт : 0 бит/сек
    Count of elements : 2
    Размер потока : 208 байт (0%)
    Язык : Russian
    Default : Да
    Forced : Да
    Меню
    00:00:00.000 : en:00:00:00.000
    00:04:40.113 : en:00:04:40.113
    00:09:23.688 : en:00:09:23.688
    00:13:30.101 : en:00:13:30.101
    00:17:54.699 : en:00:17:54.699
    00:23:17.646 : en:00:23:17.646
    00:30:58.148 : en:00:30:58.148
    00:38:21.216 : en:00:38:21.216
    00:45:41.072 : en:00:45:41.072
    00:54:50.287 : en:00:54:50.287
    01:00:10.190 : en:01:00:10.190
    01:04:35.038 : en:01:04:35.038
    01:09:44.138 : en:01:09:44.138
    01:13:58.476 : en:01:13:58.476
    01:20:16.020 : en:01:20:16.020
    01:26:02.115 : en:01:26:02.115


    Скриншоты для ознакомления




    Онлайн видео Иррациональный человек



    Иррациональный человек/Irrational Man (2015) BDRip [H.264/720p] [Line]
    загрузка...
    Рейтинг →
     (голосов: 1, оценка 5/5, голосовать можно 1 раз )

    Другие торренты по теме:

  • Иррациональный человек / Irrational Man (2015) BDRemux [H.264 / 1080p] [EN / EN Sub] скачать через торрент бесплатно
  • Иррациональный человек / Irrational Man (2015) HDRip [Line] скачать через торрент бесплатно
  • Иррациональный человек / Irrational Man (2015) BDRip [H.264 / 1080p] [Line] скачать через торрент бесплатно
  • Иррациональный человек / Irrational Man (2015) BDRip [H.264] [Line] скачать через торрент бесплатно
  • Иррациональный человек / Irrational Man (2015) BDRemux [H.264 / 1080p] [Line] скачать через торрент бесплатно
  • Иррациональный человек / Irrational Man (2015) AC3 5.1 [hand made] скачать через торрент бесплатно
  • Иррациональный человек / Irrational Man (2015) HDRip
  • Иррациональный человек / Irrational Man (2015) HDRip


    • Комментарии (0):

      Информация

      Информация

        Посетители, находящиеся в группе Гости, не могут оставлять комментарии в данной новости.

        ↓ Меню




        ↓ Опрос

        Вы добавили сайт в закладки?
        Да
        Нет


        Top 10 за месяц (Фильмы)