.
Авторизация | Регистрация
Хочешь лучшие торренты? Добавь свой email!
Добавить

Торрент скачать бесплатно

» » Второй шанс / Second Chance (2016) WEBRip (сезон 1, серии 1 из 13) BaibaKo (обновляемая) скачать через торрент бесплатно




    Второй шанс / Second Chance (2016) WEBRip (сезон 1, серии 1 из 13) BaibaKo (обновляемая) скачать через торрент бесплатно

    Опубликовал: Админ | Дата: 28-12-2015, 04:00 | Просмотров: 71

    Производство: США/20th Century Fox Television, Fox Television, Teakwood Lane Productions
    Жанр: ужасы, фантастика, драма
    Режиссер: Сара Пиа Андерсон, Майкл Куэста, Адам Кэйн

    Актеры
    Роберт Казински, Адхир Кальян, Тим ДиКей, Дилшад Вадсариа, Филип Бейкер Холл, Сиэра Браво, Хезер Д. Прикольно все это наверно придумал Европарламент потратив достаточно времени. Бенуа и др.

    Описание

    Когда 75-летнего шерифа убивают, он обретает шанс на новую жизнь. Учёные возвращают его в мир живых — он становится своеобразной версией Франкенштейна, получившей сверхсилу и вернувшей молодость. Теперь главному герою этой истории предстоит разобраться в том, по какой причине и кто именно его убил.

    Дата мировой премьеры: 13 января 2016
    Продолжительность: ~00: 45: 00 серия
    Качество видео: WEBRip
    Перевод: Многоголосый закадровый, профессиональный -BaibaKo
    Автор перевода: Фиона Кудреватых
    Озвучка: Лира Грим, Сергей Корчак, Артемий Мирон и Татьяна Оболевич
    Видео: XviD, 720x400 (16: 9), ~1500 kb/s
    Аудио Rus: MPEG Layer 3, 48, 0 kHz, 2 ch, 192 kb/s — многоголосый закадровый
    Аудио Eng: MPEG Layer 3, 48, 0 kHz, 2 ch, 192 kb/s — оригинал
    Общее
    Полное имя : D: Второй шанс (сезон любимого сериала 1) Second Chance (2016) WEBRip - BaibaKoSecond.Chance.S01E01.WEBRip.Rus.Eng.DV.BaibaKo.avi
    Формат : AVI
    Формат/Информация : Audio Video Interleave
    Размер файла : 621 Мбайт
    Продолжительность : 45 м.
    Общий поток : 1897 Кбит/сек
    Программа кодирования : VirtualDubModRus 1.5.10.2 (build 2542/release)
    Библиотека кодирования : VirtualDubMod build 2542/release
    Видео
    Идентификатор : 0
    Формат : MPEG-4 Visual
    Профиль формата : Advanced Simple@L5
    Параметр BVOP формата : 2
    Параметр QPel формата : Нет
    Параметр GMC формата : Без точки перехода
    Параметр матрицы формата : Default (H.263)
    Идентификатор кодека : XVID
    Идентификатор кодека/Подсказка : XviD
    Продолжительность : 45 м.
    Битрейт : 1499 Кбит/сек
    Ширина : 720 пикселей
    Высота : 400 пикселей
    Соотношение сторон : 16: 9
    Частота кадров : 23, 976 (24000/1001) кадра/сек
    Цветовое пространство : YUV
    Субдискретизация насыщенности : 4: 2: 0
    Битовая глубина : 8 бит
    Тип развёртки : Прогрессивная
    Метод сжатия : С потерями
    Бит/(Пиксели*Кадры) : 0.217
    Размер потока : 491 Мбайт (79%)
    Библиотека кодирования : XviD 67
    Аудио #1
    Идентификатор : 1
    Формат : MPEG Audio
    Версия формата : Version 1
    Профиль формата : Layer 3
    Режим : Joint stereo
    Расширение режима : MS Stereo
    Идентификатор кодека : 55
    Идентификатор кодека/Подсказка : MP3
    Продолжительность : 45 м.
    Вид битрейта : Постоянный
    Битрейт : 192 Кбит/сек
    Каналы : 2 канала
    Частота : 48, 0 КГц
    Метод сжатия : С потерями
    Задержка видео : 9 мс.
    Размер потока : 62, 9 Мбайт (10%)
    Выравнивание : Разделение по промежуткам
    Продолжительность промежутка : 42 мс. Самое интересное в это истории, что об этом Европарламент ничего не знал. (1, 00 видеокадр)
    Время предзагрузки промежутка : 500 мс.
    Библиотека кодирования : LAME3.99.5ЄЄЄЄЄЄЄЄЄЄ
    Аудио #2
    Идентификатор : 2
    Формат : MPEG Audio
    Версия формата : Version 1
    Профиль формата : Layer 3
    Режим : Joint stereo
    Расширение режима : MS Stereo
    Идентификатор кодека : 55
    Идентификатор кодека/Подсказка : MP3
    Продолжительность : 45 м.
    Вид битрейта : Постоянный
    Битрейт : 192 Кбит/сек
    Каналы : 2 канала
    Частота : 48, 0 КГц
    Метод сжатия : С потерями
    Задержка видео : 9 мс.
    Размер потока : 62, 9 Мбайт (10%)
    Выравнивание : Разделение по промежуткам
    Продолжительность промежутка : 42 мс. Прикольно все это наверно придумал Европарламент потратив достаточно времени. (1, 00 видеокадр)
    Время предзагрузки промежутка : 500 мс.
    Библиотека кодирования : LAME3.99.5ЄЄЄЄЄЄЄЄЄЄ


    Скриншоты для ознакомления




    Онлайн видео Второй шанс



    Второй шанс/Second Chance (2016) WEBRip (сезон 1, серии 1 из 13) BaibaKo (обновляемая)
    загрузка...
    Рейтинг →
     (голосов: 1, оценка 5/5, голосовать можно 1 раз )

    Другие торренты по теме:

  • Второй шанс / Danny Collins (2015) WEBRip [Line] скачать через торрент бесплатно
  • Второй шанс / Danny Collins (2015) WEB-DL [H.264 / 720p-LQ] скачать через торрент бесплатно
  • Второй шанс / Danny Collins (2015) WEB-DL [720p] ATV скачать через торрент бесплатно
  • Второй шанс / Danny Collins (2015) WEB-DL [H.264 / 1080p-LQ] скачать через торрент бесплатно
  • Второй шанс / Danny Collins (2015) WEB-DLRip скачать через торрент бесплатно
  • Второй шанс / Danny Collins (2014) WEB-DLRip скачать через торрент бесплатно
  • Второй шанс / En chance til (2014) HDRip скачать через торрент бесплатно
  • Второй шанс / En chance til (2014) WEB-DL [H.264 / 1080p-LQ] [VO] скачать через торрент бесплатно


    • Комментарии (0):

      Информация

      Информация

        Посетители, находящиеся в группе Гости, не могут оставлять комментарии в данной новости.

        ↓ Меню




        ↓ Опрос

        Вы добавили сайт в закладки?
        Да
        Нет


        Top 10 за месяц (Фильмы)