.
Авторизация | Регистрация
Хочешь лучшие торренты? Добавь свой email!
Добавить

Торрент скачать бесплатно

» » Волшебники / The Magicians (2016) HDTVRip (сезон 1, серии 1 из 13) LostFilm (обновляемая) скачать через торрент бесплатно




    Волшебники / The Magicians (2016) HDTVRip (сезон 1, серии 1 из 13) LostFilm (обновляемая) скачать через торрент бесплатно

    Опубликовал: Админ | Дата: 26-12-2015, 04:00 | Просмотров: 63

    Производство: США/Groundswell Productions, NBC Universal Television, Universal Cable Productions
    Жанр: драма, фэнтези, ужасы
    Режиссер: Джеймс Л. Конуэй, Скотт Смит, Гай Норман Би

    Актеры
    Джейд Тейлор, Джейсон Ральф, Оливия Тейлор Дадли, Хейл Эйплмен, Стелла Маив, Арджун Гупта, Саммер Бишил, Эдвин Перез, Ханна Левиен, Темби Лок и др.

    Описание

    В один прекрасный момент несколько молодых людей удивительным образом оказываются в университете магии Брэйкбиллз, находящемся в Нью-Йорке. Парни делают необычное открытие, вносящее кардинальные перемены в их жизнь: как оказалось, умопомрачительный мир, о котором они так часто читали в детские годы, действительно есть. Не говоря уже о том, что, у всех у них есть собственные волшебные возможности. Но скоро обнаруживается, что жители данной скрытой от постороннего взгляда местности представляют собой гигантскую опасность для всего населения Земли.

    Дата мировой премьеры: 8 января 2016
    Продолжительность: ~00: 51: 00 серия
    Качество видео: HDTVRip
    Перевод: Многоголосый закадровый, профессиональный -LostFilm
    Видео: XviD, 720x400 (16: 9), ~1500 kb/s
    Аудио Rus: MPEG Layer 3, 48, 0 kHz, 2 ch, 128 kb/s — многоголосый закадровый
    Аудио Eng: MPEG Layer 3, 48, 0 kHz, 2 ch, 128 kb/s — оригинал
    Общее
    Полное имя : D: Волшебники (сезон любимого сериала 1) The Magicians (2016) HDTVRip - LostFilmThe.Magicians.S01E01.HDTVRip.Rus.Eng.DV.LostFilm.avi
    Формат : AVI
    Формат/Информация : Audio Video Interleave
    Размер файла : 661 Мбайт
    Продолжительность : 51 м.
    Общий поток : 1790 Кбит/сек
    Программа кодирования : VirtualDubModRus 1.5.10.2 (build 2542/release)
    Библиотека кодирования : VirtualDubMod build 2542/release
    Видео
    Идентификатор : 0
    Формат : MPEG-4 Visual
    Профиль формата : Advanced Simple@L5
    Параметр BVOP формата : 2
    Параметр QPel формата : Нет
    Параметр GMC формата : Без точки перехода
    Параметр матрицы формата : Default (H.263)
    Идентификатор кодека : XVID
    Идентификатор кодека/Подсказка : XviD
    Продолжительность : 51 м.
    Битрейт : 1519 Кбит/сек
    Ширина : 720 пикселей
    Высота : 400 пикселей
    Соотношение сторон : 16: 9
    Частота кадров : 23, 976 (24000/1001) кадра/сек
    Цветовое пространство : YUV
    Субдискретизация насыщенности : 4: 2: 0
    Битовая глубина : 8 бит
    Тип развёртки : Прогрессивная
    Метод сжатия : С потерями
    Бит/(Пиксели*Кадры) : 0.220
    Размер потока : 561 Мбайт (85%)
    Заголовок : Rip by DriverV/NNM-Club
    Библиотека кодирования : XviD 64
    Аудио #1
    Идентификатор : 1
    Формат : MPEG Audio
    Версия формата : Version 1
    Профиль формата : Layer 3
    Режим : Joint stereo
    Расширение режима : MS Stereo
    Идентификатор кодека : 55
    Идентификатор кодека/Подсказка : MP3
    Продолжительность : 51 м.
    Вид битрейта : Постоянный
    Битрейт : 128 Кбит/сек
    Каналы : 2 канала
    Частота : 48, 0 КГц
    Метод сжатия : С потерями
    Размер потока : 47, 3 Мбайт (7%)
    Выравнивание : Разделение по промежуткам
    Продолжительность промежутка : 42 мс. В ногах правды нет, сказал кто то из толпы, к чему не понятно. (1, 00 видеокадр)
    Время предзагрузки промежутка : 500 мс.
    Аудио #2
    Идентификатор : 2
    Формат : MPEG Audio
    Версия формата : Version 1
    Профиль формата : Layer 3
    Режим : Joint stereo
    Расширение режима : MS Stereo
    Идентификатор кодека : 55
    Идентификатор кодека/Подсказка : MP3
    Продолжительность : 51 м.
    Вид битрейта : Постоянный
    Битрейт : 128 Кбит/сек
    Каналы : 2 канала
    Частота : 48, 0 КГц
    Метод сжатия : С потерями
    Размер потока : 47, 3 Мбайт (7%)
    Выравнивание : Разделение по промежуткам
    Продолжительность промежутка : 42 мс. Прикольно все это наверно придумал Кравчук потратив достаточно времени. (1, 00 видеокадр)
    Время предзагрузки промежутка : 500 мс.


    Скриншоты для ознакомления




    Онлайн видео Волшебники



    Волшебники/The Magicians (2016) HDTVRip (сезон 1, серии 1 из 13) LostFilm (обновляемая)
    загрузка...
    Рейтинг →
     (голосов: 1, оценка 5/5, голосовать можно 1 раз )

    Другие торренты по теме:

  • Волшебники / The Magicians (2016) HDTVRip (сезон 1, серии 1 из 13) BaibaKo (обновляемая) скачать через торрент бесплатно
  • Волшебники / The Magicians (2015) HDTV [H.264 / 720p-LQ] (сезон 1, серии 1 из 12) BaibaKo (обновляемая)
  • Волшебники / The Magicians (2015) HDTVRip [H.264] (сезон 1, серии 1 из 12) BaibaKo [MP4|720x400]
  • Волшебники / The Magicians (2015) HDTVRip [H.264] (сезон 1, серии 1 из 12) LostFilm [MP4|1280x720]
  • Волшебники / The Magicians (2017) HDTVRip [H.264 / 720p-LQ] (сезон 2, серии 1 из 13) Jaskier (обновляемая)
  • Волшебники / The Magicians (2017) WEB-DL [H.264 / 720p-LQ] (сезон 2, серии 1-13 из 13) Jaskier


    • Комментарии (0):

      Информация

      Информация

        Посетители, находящиеся в группе Гости, не могут оставлять комментарии в данной новости.

        ↓ Меню




        ↓ Опрос

        Вы добавили сайт в закладки?
        Да
        Нет


        Top 10 за месяц (Фильмы)