.
Авторизация | Регистрация
Хочешь лучшие торренты? Добавь свой email!
Добавить

Торрент скачать бесплатно

» » Сверхъестественное / Supernatural (2010) BDRip [H.264 / 1080p] (сезон 6, серии 1-22 из 22) РЕН-ТВ скачать через торрент бесплатно




    Сверхъестественное / Supernatural (2010) BDRip [H.264 / 1080p] (сезон 6, серии 1-22 из 22) РЕН-ТВ скачать через торрент бесплатно

    Опубликовал: Админ | Дата: 25-12-2015, 04:01 | Просмотров: 61

    Производство: США/Kripke Enterprises, Warner Bros. Pictures Co., Warner Bros. Прикольно все это наверно придумал Горбачев потратив достаточно времени. Television, Wonderland Sound and Vision
    Жанр: ужасы, фэнтези, драма
    Режиссер: Эрик Крипке, Филип Сгриккиа, Роберт Сингер, Сара Гэмбл

    Актеры
    Джаред Падалеки, Дженсен Эклс, Джим Бивер, Миша Коллинз, Женевьев Кортезе, Джеффри Дин Морган, Саманта Феррис, Кэти Кэссиди, Лорен Коэн, Алона Тал и др.

    Описание

    Сериал повествует о двух братьях — охотниках за нечистью, которые путешествуют по Соединённым Штатам Америки на чёрной Chevrolet Impala 1967 года, расследуя паранормальные явления, многие из которых основаны на городских легендах и фольклоре, а также сражаются с порождениями зла: демонами, призраками и другой нечистью.

    Продолжительность: ~ 00: 42: 00 серия
    Качество видео: BDRip
    Перевод: Дублированный - РЕН-ТВ
    Видео: AVC/H.264, 1920х1080 (16: 9), ~15, 6 mbps
    Аудио: AC3, 2 ch, 192 kbps, CBR
    Код:
    E:ФильмыСверхъестественное (6 Сезон)[2010-2011]Серия (11)[Свидание в Самарре].mkv
    General
    Unique ID : 211093767401583129081925809860898509569 (0x9ECF2E4705D7E0BAB30810EFC4ACD301)
    Complete name : E:ФильмыСверхъестественное (6 Сезон)[2010-2011]Серия (11)[Свидание в Самарре].mkv
    Format : Matroska
    Format version : Version 4/Version 2
    File size : 4.71 GiB
    Duration : 41mn 47s
    Overall bit rate mode : Variable
    Overall bit rate : 16.1 Mbps
    Encoded date : UTC 2015-12-23 23:06:50
    Writing application : mkvmerge v6.1.0 (\'Old Devil\') built on Mar 4 2013 09:10:42
    Writing library : libebml v1.3.0 + libmatroska v1.4.0
    Video #1
    ID : 1
    Format : AVC
    Format/Info : Advanced Video Codec
    Format profile :High@L4.0
    Format settings, CABAC : Yes
    Format settings, ReFrames : 2 frames
    Codec ID : V_MPEG4/ISO/AVC
    Duration : 41mn 47s
    Bit rate mode : Variable
    Bit rate : 15.6 Mbps
    Width : 1 920 pixels
    Height : 1 080 pixels
    Display aspect ratio : 16:9
    Frame rate mode : Constant
    Frame rate : 23.976 fps
    Color space : YUV
    Chroma subsampling : 4:2:0
    Bit depth : 8 bits
    Scan type : Progressive
    Bits/(Pixel*Frame) : 0.314
    Stream size : 4.56 GiB (97%)
    Default : Yes
    Forced : No
    Audio #2
    ID : 2
    Format : AC-3
    Format/Info : Audio Coding 3
    Mode extension : CM (complete main)
    Format settings, Endianness : Big
    Codec ID : A_AC3
    Duration : 41mn 47s
    Bit rate mode : Constant
    Bit rate : 192 Kbps
    Channel(s) : 2 channels
    Channel positions : Front: L R
    Sampling rate : 48.0 KHz
    Bit depth : 16 bits
    Compression mode : Lossy
    Stream size : 57.4 MiB (1%)
    Title : DUB Ren-Tv
    Language : Russian
    Default : Yes
    Forced : No


    Скриншоты для ознакомления




    Онлайн видео Сверхъестественное



    Сверхъестественное/Supernatural (2010) BDRip [H.264/1080p] (сезон 6, серии 1-22 из 22) РЕН-ТВ
    загрузка...
    Рейтинг →
     (голосов: 1, оценка 4/5, голосовать можно 1 раз )

    Другие торренты по теме:

  • Сверхъестественное / Supernatural (2014) WEB-DLRip [720p] (сезон 10, серии 1 из ) LostFilm (oбновляемая)
  • Сверхъестественное / Supernatural (2014-2015) WEB-DLRip [H.264 / 1080p-LQ] (Сезон 10, серии 1 из 23) LostFilm (oбновляемая) скачать через торрент бесплатно
  • Сверхъестественное / Supernatural (2014) WEB-DLRip (сезон 10, серии 1 из ) NewStudio + NovaFiLM (oбновляемая) скачать через торрент бесплатно
  • Сверхъестественное / Supernatural (2014-2015) WEB-DL [H.264 / 1080p-LQ] (Сезон 10, серии 1 из 23) LostFilm (Обновляемая)
  • Сверхъестественное / Supernatural (2014) HDTVRip (Сезон 10, 1-2 серия из 23) [DreamRecords] (Обновляемая)
  • Сверхъестественное / Supernatural (2014) WEB-DLRip (сезон 10, серии 1-2 из ) BaibaKo (oбновляемая) скачать через торрент бесплатно
  • Сверхъестественное / Supernatural (2014-2015) HDTVRip (Сезон 10, серии 0-2 из 23) [EN EN, RU Sub] (Обновляемая) скачать через торрент бесплатно
  • Сверхъестественное / Supernatural (2014) WEB-DLRip (сезон 10, серии 1-2 из ) LostFilm (oбновляемая) скачать через торрент бесплатно


    • Комментарии (0):

      Информация

      Информация

        Посетители, находящиеся в группе Гости, не могут оставлять комментарии в данной новости.

        ↓ Меню




        ↓ Опрос

        Вы добавили сайт в закладки?
        Да
        Нет


        Top 10 за месяц (Фильмы)