.
Авторизация | Регистрация
Хочешь лучшие торренты? Добавь свой email!
Добавить

Торрент скачать бесплатно

» » 31 июня (1978) DVDRip [Н.264] скачать через торрент бесплатно




    31 июня (1978) DVDRip [Н.264] скачать через торрент бесплатно

    Опубликовал: Админ | Дата: 25-12-2015, 04:01 | Просмотров: 33

    Производство: СССР, Мосфильм
    Жанр: Музыкальный, Фэнтези
    Режиссер: Леонид Квинихидзе

    Актеры
    Николай Еременко мл., Наталья Трубникова, Владимир Зельдин, Владимир Этуш, Людмила Власова, Александр Годунов, Любовь Полищук, Игорь Ясулович, Марина Нудга, Эммануил Геллер

    Описание

    Действие фильма происходит в двух временных линиях — в вымышленном XII и реальном XXI веках в Англии.
    Король сказочного Перадора Мелиот ищет жениха для дочери — принцессы Мелисенты. Те претенденты на её руку, что живут с ней в одно время, принцессе не подходят. В этот же день, 30 июня, житель XXI века художник Сэм Пэнти ищет образ девушки для рекламы чулок, которую ему необходимо сдать 1 июля. Увидев Мелисенту в зеркале, Сэм понимает, что нашёл то, что так долго искал. Злой волшебник Мальгрим устроил недолгую встречу Мелисенты и Сэма Пэнти на звёздном мосту. Молодые люди полюбили друг друга с первого взгляда. Но за их соединение Мальгрим просит слишком большую плату — волшебную брошь великого Мерлина, принадлежащую Мелисенте.

    Продолжительность: 01: 04: 29+01: 05: 57
    Качество видео: DVDRip
    Видео: AVC/H.264, 704Х512, ~1953 kbps
    Аудио: AC3, 6 ch, 448 Kbps
    Код:

    Общее
    Уникальный идентификатор : 172128011014410318471310087578054863180 (0x817EA62952D238C582617C0F30F4A94C)
    Полное имя : J:Фантастика31 июня31 июня (2 серии)31 июня I серия.mkv
    Формат : Matroska
    Версия формата : Version 2
    Размер файла : 1, 10 Гбайт
    Продолжительность : 1 ч. Прикольно все это наверно придумал Халк потратив достаточно времени. 4 м.
    Общий поток : 2449 Кбит/сек
    Название фильма : Release for Topmost
    Дата кодирования : UTC 2015-05-07 17:03:27
    Программа кодирования : mkvmerge v6.2.0 (\'Promised Land\') built on Apr 28 2013 12:22:01
    Библиотека кодирования : libebml v1.3.0 + libmatroska v1.4.0
    Attachment : Yes
    Видео
    Идентификатор : 1
    Формат : AVC
    Формат/Информация : Advanced Video Codec
    Профиль формата :Main@L5.1
    Параметр CABAC формата : Да
    Параметр ReFrames формата : 1 кадр
    Идентификатор кодека : V_MPEG4/ISO/AVC
    Продолжительность : 1 ч. 4 м.
    Битрейт : 1952 Кбит/сек
    Ширина : 704 пикселя
    Высота : 512 пикселей
    Соотношение сторон : 1, 375
    Режим частоты кадров : Постоянный
    Частота кадров : 25, 000 кадров/сек
    Цветовое пространство : YUV
    Субдискретизация насыщенности : 4:2:0
    Битовая глубина : 8 бит
    Тип развёртки : Прогрессивная
    Бит/(Пиксели*Кадры) : 0.217
    Размер потока : 900 Мбайт (80%)
    Заголовок : 31 июня Topmost
    Язык : Russian
    Default : Да
    Forced : Нет
    Аудио
    Идентификатор : 2
    Формат : AC-3
    Формат/Информация : Audio Coding 3
    Расширение режима : CM (complete main)
    Параметр Endianness формата : Big
    Идентификатор кодека : A_AC3
    Продолжительность : 1 ч. 4 м.
    Вид битрейта : Постоянный
    Битрейт : 448 Кбит/сек
    Каналы : 6 каналов
    Расположение каналов : Front: L C R, Side: L R, LFE
    Частота : 48, 0 КГц
    Битовая глубина : 16 бит
    Метод сжатия : С потерями
    Задержка видео : 362 мс.
    Размер потока : 207 Мбайт (18%)
    Заголовок : AC-3, 448 kbps, 6 ch, 48 KHz
    Язык : Russian
    Default : Да
    Forced : Нет
    Общее
    Уникальный идентификатор : 248819799369828027895720552218455541814 (0xBB30F342AF47CC2CB2168B5C64A58836)
    Полное имя : J:Фантастика31 июня31 июня (2 серии)31 июня II серия.mkv
    Формат : Matroska
    Версия формата : Version 2
    Размер файла : 1, 13 Гбайт
    Продолжительность : 1 ч. 5 м.
    Общий поток : 2450 Кбит/сек
    Название фильма : Release for Topmost
    Дата кодирования : UTC 2015-05-07 17:05:14
    Программа кодирования : mkvmerge v6.2.0 (\'Promised Land\') built on Apr 28 2013 12:22:01
    Библиотека кодирования : libebml v1.3.0 + libmatroska v1.4.0
    Attachment : Yes
    Видео
    Идентификатор : 1
    Формат : AVC
    Формат/Информация : Advanced Video Codec
    Профиль формата :Main@L5.1
    Параметр CABAC формата : Да
    Параметр ReFrames формата : 1 кадр
    Параметр GOP формата : N=1
    Идентификатор кодека : V_MPEG4/ISO/AVC
    Продолжительность : 1 ч. 5 м.
    Битрейт : 1953 Кбит/сек
    Ширина : 704 пикселя
    Высота : 512 пикселей
    Соотношение сторон : 1, 375
    Режим частоты кадров : Постоянный
    Частота кадров : 25, 000 кадров/сек
    Цветовое пространство : YUV
    Субдискретизация насыщенности : 4:2:0
    Битовая глубина : 8 бит
    Тип развёртки : Прогрессивная
    Бит/(Пиксели*Кадры) : 0.217
    Размер потока : 922 Мбайт (80%)
    Заголовок : 31 июня 2 серия (Topmost)
    Default : Да
    Forced : Нет
    Аудио
    Идентификатор : 2
    Формат : AC-3
    Формат/Информация : Audio Coding 3
    Расширение режима : CM (complete main)
    Параметр Endianness формата : Big
    Идентификатор кодека : A_AC3
    Продолжительность : 1 ч. 5 м.
    Вид битрейта : Постоянный
    Битрейт : 448 Кбит/сек
    Каналы : 6 каналов
    Расположение каналов : Front: L C R, Side: L R, LFE
    Частота : 48, 0 КГц
    Битовая глубина : 16 бит
    Метод сжатия : С потерями
    Задержка видео : 823 мс.
    Размер потока : 211 Мбайт (18%)
    Заголовок : AC-3, 448 kbps, 6 ch, 48 KHz
    Язык : Russian
    Default : Да
    Forced : Нет


    Скриншоты для ознакомления




    31 июня (1978) DVDRip [Н.264]
    загрузка...
    Рейтинг →
     (голосов: 1, оценка 5/5, голосовать можно 1 раз )

    Другие торренты по теме:

  • VA - Лучшие новинки июня 2015 от Zaycev.net (2015) [MP3|160 - 320 кб / с]<Pop, Dance, Club> скачать через торрент бесплатно
  • Геннадий Лукьянов | Накануне 22 июня. Был ли готов Советский Союз к войне (2015) [PDF] скачать через торрент бесплатно
  • Концерт симфонической музыки и поэзии "Музыка поэзии, природы и любви" из ежегодного цикла концертов "Летние Вечера". 27 июня (2015) HDCam [H.264 / 1080i]
  • Симфонический концерт "Весенние голоса" из ежегодного цикла концертов "Летние Вечера". Самарская Филармония 20 июня (2015) HDCam [H.264 / 1080i]
  • VA - Зайцев нет. Лучшие новинки июня (2016) [MP3|320 кб / с] <Pop>
  • От Версаля до 22 июня (2008) DVB (Серии 1-6 из 8) (Обновляемая)
  • От Версаля до 22 июня (фрагменты истории) (2008) SATRip (Серии 1-8 из 8)
  • Секретные материалы 17. Легенда 22 июня (2016) SATRip


    • Комментарии (0):

      Информация

      Информация

        Посетители, находящиеся в группе Гости, не могут оставлять комментарии в данной новости.

        ↓ Меню




        ↓ Опрос

        Вы добавили сайт в закладки?
        Да
        Нет


        Top 10 за месяц (Фильмы)