.
Авторизация | Регистрация
Хочешь лучшие торренты? Добавь свой email!
Добавить

Торрент скачать бесплатно

» » Скалолазка / Рожденная мечтать (2013) WEB-DLRip (серии 1-6 из 8) (обновляемая) скачать через торрент бесплатно




    Скалолазка / Рожденная мечтать (2013) WEB-DLRip (серии 1-6 из 8) (обновляемая) скачать через торрент бесплатно

    Опубликовал: Админ | Дата: 24-12-2015, 04:00 | Просмотров: 76

    Производство: Россия/Кинокомпания Русское
    Жанр: мелодрама
    Режиссер: Андрей Селиванов

    Актеры
    Мария Аниканова, Дмитрий Щербина, Татьяна Космачёва, Станислав Бондаренко, Роман Ладнев, Александр Суворов, Лилия Разакова, Алина Кизиярова, Михаил Мартьянов, Ричард Бондарев, Дмитрий Никонов, Анастасия Сметанина, Сергей Генкин, Роман Хардиков, Дмитрий Павленко, Дмитрий Артаев, Юлия Яновская, Дмитрий Астапенко, Кристина Пакарина, Никита Абдулов и др.

    Описание

    Супруги Ирина и Леонид спасают маленькую девочку, чудом уцелевшую в автокатастрофе в горах. Белая ворона, сказал кто то из толпы, к чему не понятно. У пары нет своих детей, и, думая, что семья малышки погибла, они решаются удочерить ее и называют Ниной. Проходят годы, Нина вырастает настоящей красавицей. После трагической гибели Леонида, бывшего альпиниста, Ирина всю себя посвящает дочери. Ее огорчает лишь то, что девушка грезит романтикой гор и мечтает пойти по стопам Леонида – стать скалолазкой.. Тем временем, в далекой Осетии старый монах перед смертью находит родного брата Нины Михаила. Он признаётся, что, будучи врачом, отдал выжившую девочку на воспитание чужим людям..
    Дата премьеры: 18 декабря 2015
    Продолжительность: ~00: 45: 00 серия
    Качество видео: WEB-DLRip
    Видео: XviD, 720x400 (16: 9), ~1493 Kbps
    Аудио: AC-3, 48.0 KHz, 2 ch, 192 Kbps, CBR
    Код:

    Формат : AVI
    Формат/Информация : Audio Video Interleave
    Размер файла : 549 Мбайт
    Продолжительность : 45 м.
    Общий поток : 1695 Кбит/сек
    Программа кодирования : VirtualDubMod 1.5.10.3 |www.virtualdub-fr.org|| (build 2550/release)
    Библиотека кодирования : VirtualDubMod build 2550/release
    Видео
    Идентификатор : 0
    Формат : MPEG-4 Visual
    Профиль формата : Advanced Simple@L5
    Параметр BVOP формата : 2
    Параметр QPel формата : Нет
    Параметр GMC формата : Без точки перехода
    Параметр матрицы формата : Default (MPEG)
    Идентификатор кодека : XVID
    Идентификатор кодека/Подсказка : XviD
    Продолжительность : 45 м.
    Битрейт : 1493 Кбит/сек
    Ширина : 720 пикселей
    Высота : 400 пикселей
    Соотношение сторон : 16:9
    Частота кадров : 25, 000 кадров/сек
    Цветовое пространство : YUV
    Субдискретизация насыщенности : 4:2:0
    Битовая глубина : 8 бит
    Тип развёртки : Прогрессивная
    Метод сжатия : С потерями
    Бит/(Пиксели*Кадры) : 0.207
    Размер потока : 483 Мбайт (88%)
    Библиотека кодирования : XviD 1.2.1 (UTC 2008-12-04)
    Аудио
    Идентификатор : 1
    Формат : AC-3
    Формат/Информация : Audio Coding 3
    Расширение режима : CM (complete main)
    Параметр Endianness формата : Big
    Идентификатор кодека : 2000
    Продолжительность : 45 м.
    Вид битрейта : Постоянный
    Битрейт : 192 Кбит/сек
    Каналы : 2 канала
    Расположение каналов : Front: L R
    Частота : 48, 0 КГц
    Битовая глубина : 16 бит
    Метод сжатия : С потерями
    Размер потока : 62, 2 Мбайт (11%)
    Выравнивание : Разделение по промежуткам
    Продолжительность промежутка : 40 мс. (1, 00 видеокадр)
    Время предзагрузки промежутка : 500 мс.


    Скриншоты для ознакомления




    Онлайн видео Скалолазка



    Скалолазка/Рожденная мечтать (2013) WEB-DLRip (серии 1-6 из 8) (обновляемая)
    загрузка...
    Рейтинг →
     (голосов: 1, оценка 4/5, голосовать можно 1 раз )

    Другие торренты по теме:

  • Скалолазка / Рожденная мечтать (2013) WEB-DL [H.264 / 720p-LQ] (серии 1-6 из 8) (обновляемая) скачать через торрент бесплатно
  • Скалолазка / Рожденная мечтать (2013) WEB-DL [H.264 / 1080p-LQ] (серии 1-6 из 8) (обновляемая) скачать через торрент бесплатно


    • Комментарии (0):

      Информация

      Информация

        Посетители, находящиеся в группе Гости, не могут оставлять комментарии в данной новости.

        ↓ Меню




        ↓ Опрос

        Вы добавили сайт в закладки?
        Да
        Нет


        Top 10 за месяц (Фильмы)