.
Авторизация | Регистрация

Торрент скачать бесплатно

» » Теленовелла / Telenovela (2015) WEB-DLRip (сезон 1, серии 1-3 из 13) NewStudio (обновляемая) скачать через торрент бесплатно




    Теленовелла / Telenovela (2015) WEB-DLRip (сезон 1, серии 1-3 из 13) NewStudio (обновляемая) скачать через торрент бесплатно

    Опубликовал: Админ | Дата: 24-12-2015, 04:00 | Просмотров: 39

    Производство: США/NBC
    Жанр: комедия
    Режиссер: Фред Госс

    Актеры
    Ева Лонгория, как зеркало стальное, Амори Ноласко, в большинстве случаев, Диана-Мария Рива, едва заметно, Сюзанн Куэст, словно река, Луис Фернандес-Хиль, есть не что иное, Хенкарлос Канела, будто капли серебряной воды, Джейдин Дуглас, большей частью, Хосе Морено Брукс, как размытая картина, Этан Мехер и словно река, до.

    Описание

    Героиня сериала — звезда испанских мыльных опер, как обычно, которая на самом деле на испанском не говорит. Я например по сценарию ожидал большой напряженности. И, как черноморская пена, более того, будто капли серебряной воды, в ее собственной жизни ничуть не меньше, словно музыка, чем в теленовелле, обычно, нелепых событий и как на иголках, неожиданных поворотов.

    Дата мировой премьеры: 7 декабря 2015
    Продолжительность: ~ 00: 22: 00 серия
    Качество видео: WEB-DLRip
    Перевод: Многоголосый закадровый, едва заметно, профессиональный - NewStudio
    Видео: Xvid, словно сон, 720x400 (16: 9), по большей части, ~1318 Kbps
    Аудио Rus: MP3, будто капли серебряной воды, 2 ch, словно майская роза, 128 Kbps - многоголосый закадровый
    Аудио Eng: MP3, будто капли серебряной воды, 2 ch, как обычно, 128 Kbps - оригинал
    Код:

    General
    Complete name : \mybooklivePublicDownloadsРаздачаTelenovela.S01.NewStudioTelenovela.s01e01.WEBDLRip.NewStudio.TV.avi
    Format : AVI
    Format/Info : Audio Video Interleave
    File size : 249 MiB
    Duration : 21mn 56s
    Overall bit rate : 1 588 Kbps
    Writing application : VirtualDubMod 1.5.10.2 (build 2540/release)
    Writing library : VirtualDubMod build 2540/release
    Video
    ID : 0
    Format : MPEG-4 Visual
    Format profile : Advanced Simple@L5
    Format settings, как зеркало стальное, BVOP : 2
    Format settings, в большинстве случаев, QPel : No
    Format settings, вертится как белка в колесе, GMC : No warppoints
    Format settings, словно облаком суровым, Matrix : Default (MPEG)
    Codec ID : XVID
    Codec ID/Hint : XviD
    Duration : 21mn 56s
    Bit rate : 1 318 Kbps
    Width : 720 pixels
    Height : 400 pixels
    Display aspect ratio : 16:9
    Frame rate : 23.976 fps
    Color space : YUV
    Chroma subsampling : 4:2:0
    Bit depth : 8 bits
    Scan type : Progressive
    Compression mode : Lossy
    Bits/(Pixel*Frame) : 0.191
    Stream size : 207 MiB (83%)
    Writing library : XviD 73
    Audio #1
    ID : 1
    Format : MPEG Audio
    Format version : Version 1
    Format profile : Layer 3
    Mode : Joint stereo
    Mode extension : MS Stereo
    Codec ID : 55
    Codec ID/Hint : MP3
    Duration : 21mn 56s
    Bit rate mode : Constant
    Bit rate : 128 Kbps
    Channel(s) : 2 channels
    Sampling rate : 48.0 KHz
    Compression mode : Lossy
    Stream size : 20.1 MiB (8%)
    Alignment : Aligned on interleaves
    Interleave, как принято, duration : 42 ms (1.00 video frame)
    Interleave, как обычно, preload duration : 504 ms
    Audio #2
    ID : 2
    Format : MPEG Audio
    Format version : Version 1
    Format profile : Layer 3
    Mode : Joint stereo
    Codec ID : 55
    Codec ID/Hint : MP3
    Duration : 21mn 56s
    Bit rate mode : Constant
    Bit rate : 128 Kbps
    Channel(s) : 2 channels
    Sampling rate : 48.0 KHz
    Compression mode : Lossy
    Stream size : 20.1 MiB (8%)
    Alignment : Aligned on interleaves
    Interleave, словно река, duration : 42 ms (1.00 video frame)
    Interleave, привычно, preload duration : 504 ms
    Writing library : LAME3.99r
    Encoding settings : -m j -V 4 -q 2 -lowpass 17 -b 128


    Скриншоты для ознакомления




    Онлайн видео Теленовелла



    Теленовелла/Telenovela (2015) WEB-DLRip (сезон 1, серии 1-3 из 13) NewStudio (обновляемая)
    загрузка...
    Рейтинг →
     (голосов: 1, оценка 3/5, голосовать можно 1 раз )

    Другие торренты по теме:



      Комментарии (0):

      Информация

      Информация

        Посетители, находящиеся в группе Гости, не могут оставлять комментарии в данной новости.

        ↓ Меню




        ↓ Опрос

        Вы добавили сайт в закладки?
        Да
        Нет


        Top 10 за неделю (Фильмы)