.
Авторизация | Регистрация
Хочешь лучшие торренты? Добавь свой email!
Добавить

Торрент скачать бесплатно

» » Воскресший Эртугрул / Возрождение: Эртугрул / Dirilis: Ertugrul (2015) WEB-DLRip (сезон 2, серии 1-12 (27-38) из ) turok1990 (обновляемая) скачать через торрент бесплатно




    Воскресший Эртугрул / Возрождение: Эртугрул / Dirilis: Ertugrul (2015) WEB-DLRip (сезон 2, серии 1-12 (27-38) из ) turok1990 (обновляемая) скачать через торрент бесплатно

    Опубликовал: Админ | Дата: 23-12-2015, 04:00 | Просмотров: 569

    Производство: Турция/Tekden Film, TRT 1
    Жанр: история
    Режиссер: Метин Гюнай

    Актеры
    Элгин Алтан Дюзйатан, Каан Ташанер, Хюлья Дарджан, Угур Гюнеш, Дидем Балчын, Эсра Билгич, Бурджу Кыратлы, Барыш Багджи, Хюсейин Озай, Айберк Пекджан, Дженгиз Джошкун, Джавит Четин Гюнер, Нуреттин Сёнмез, Осман Сойкут, Толга Сала, Мухаррем Озджан, Джаглар Йигит Огуллари, Еврен Эрлер, Картан Гюрман, Эмре Озан, Атилла Кылыч и др.

    Описание

    Сериал Воскресший Эртугрул унесет зрителей в глубину истории, когда начала формироваться Великая Османская империя и расскажет о жизни Эртугрула, отца Османа I. Эртугрул был лидером клана тюрок-огузов из рода Кайы и прибыл в Анатолию из Мерва (Туркменистана) с 400 всадниками, чтобы помочь сельджукам Рума против византийцев.
    Эртугрул по праву считается отцом Османской империи. Этот воин благодаря своей храбрости, терпению и упорству начал великие завоевания, которые впоследствии сформировали Османскую империю. Время пошло, сказал кто то из толпы, к чему не понятно. За время своего правления ему удалось завоевать всю западную часть Малой Азии, а его поколения правили империей на протяжении шести веков.
    Сериал расскажет о великом переселении, о завоевании новых земель, об исторических походах и, конечно же, о любви.

    Продолжительность: ~ 02: 00: 00 серия
    Качество видео: WEB-DLRip
    Перевод: Одноголосый закадровый, любительский - turok1990
    Видео: Xvid, 720x400 (16: 9), ~1404 kbps
    Аудио: MP3, 2 ch, 192 kbps, CBR
    Код:

    DLRip.avi
    Format : AVI
    Format/Info : Audio Video Interleave
    File size : 1.37 GiB
    Duration : 2h 2mn
    Overall bit rate : 1 606 Kbps
    Video
    ID : 0
    Format : MPEG-4 Visual
    Format profile : Advanced Simple@L5
    Format settings, BVOP : 2
    Format settings, QPel : No
    Format settings, GMC : No warppoints
    Format settings, Matrix : Default (H.263)
    Codec ID : XVID
    Codec ID/Hint : XviD
    Duration : 2h 2mn
    Bit rate : 1 404 Kbps
    Width : 720 pixels
    Height : 400 pixels
    Display aspect ratio : 16:9
    Frame rate : 25.000 fps
    Color space : YUV
    Chroma subsampling : 4:2:0
    Bit depth : 8 bits
    Scan type : Progressive
    Compression mode : Lossy
    Bits/(Pixel*Frame) : 0.195
    Stream size : 1.20 GiB (87%)
    Writing library : XviD 63
    Audio
    ID : 1
    Format : MPEG Audio
    Format version : Version 1
    Format profile : Layer 3
    Codec ID : 55
    Codec ID/Hint : MP3
    Duration : 2h 2mn
    Bit rate mode : Constant
    Bit rate : 192 Kbps
    Channel(s) : 2 channels
    Sampling rate : 44.1 KHz
    Compression mode : Lossy
    Stream size : 168 MiB (12%)
    Alignment : Split accross interleaves
    Interleave, duration : 40 ms (1.00 video frame)
    Interleave, preload duration : 500 ms
    Writing library : LAME3.99r
    Encoding settings : -m s -V 4 -q 2 -lowpass 18.6 -b 192


    Скриншоты для ознакомления




    Онлайн видео Воскресший Эртугрул



    Воскресший Эртугрул/Возрождение: Эртугрул/Dirilis: Ertugrul (2015) WEB-DLRip (сезон 2, серии 1-12 (27-38) из ) turok1990 (обновляемая)
    загрузка...
    Рейтинг →
     (голосов: 1, оценка 4/5, голосовать можно 1 раз )

    Другие торренты по теме:

  • Воскресший Эртугрул / Возрождение: Эртугрул / Dirilis: Ertugrul (2016) WEB-DLRip (сезон 3, серия 1 (62) из ) (обновляемая)
  • Воскресший Эртугрул / Возрождение: Эртугрул / Dirilis: Ertugrul (2016) WEB-DLRip (сезон 3, серия 1-24 (62-85) из ) turok1990 (обновляемая)


    • Комментарии (0):

      Информация

      Информация

        Посетители, находящиеся в группе Гости, не могут оставлять комментарии в данной новости.

        ↓ Меню




        ↓ Опрос

        Вы добавили сайт в закладки?
        Да
        Нет


        Top 10 за месяц (Фильмы)