.
Авторизация | Регистрация
Хочешь лучшие торренты? Добавь свой email!
Добавить

Торрент скачать бесплатно

» » Универ. Новая общага (2015) DVB (сезон 10, серии 1-18 из 20) (обновляемая) скачать через торрент бесплатно




    Универ. Новая общага (2015) DVB (сезон 10, серии 1-18 из 20) (обновляемая) скачать через торрент бесплатно

    Опубликовал: Админ | Дата: 23-12-2015, 04:00 | Просмотров: 43

    Производство: Россия/Комеди Клаб Продакшн, Телеканал ТНТ
    Жанр: комедия
    Режиссер: Константин Смирнов, Максим Зыков

    Актеры
    Арарат Кещян, Станислав Ярушин, Анна Кузина, Настасья Самбурская, Анна Хилькевич, Владимир Фекленко, Елена Валюшкина, Андрей Лебедев, Сергей Пиоро, Роман Куперман, Дмитрий Калистратов, Алексей Шаранин, Дарья Щёголева, Наталья Рудова, Иван Руденко, Анатолий Носов, Дмитрий Кузин и др.

    Описание

    Антон и Кристина переезжают в своё собственное любовное гнёздышко. Вот только оказывается, что свить его не так-то просто, даже если все расходы берёт на себя папа-олигарх Лев Андреевич. Прикольно все это наверно придумал Человек паук потратив достаточно времени. Майкл, как ни странно, продолжает встречаться с Варей. Всё бы ничего, но теперь, когда Зуев знает об их отношениях, Майклу приходится общаться с начальником не только по рабочим вопросам, но и по домашним. Самое интересное в это истории, что об этом Человек паук ничего не знал. Как бы ни старались Маша с Валей жить спокойной студенческой жизнью, радуясь своему странному союзу, — ничего у них не выходит. Маша постоянно переживает за любимого и всячески пытается ему помочь. Яна Семакина вместе с Иванычем все сбережения будут вкладывать в свою ласточку. Прекрасное ведёрко на колёсиках работает по схеме 5-1: пять часов чинишь, час катаешься. Что касается отношений, то пара становится всё более цельной — с общим видением жизни и увлечениями. Об этом и о многом другом вы узнаете в новом сезон любимого сериалае...

    Продолжительность: ~ 00: 25: 00 серия
    Качество видео: DVB
    Видео: MPEG-2, 720x576@768х576 (4: 3), ~3500 Kbps
    Аудио: MP2, 2 ch, 192 Kbps
    Код:
    Общее
    Полное имя : E:DOWNLOADSУнивер. Новая общага (10 сезон любимого сериала) 2015 DVBУнивер. Новая общага 10 - 01 серия.mpg
    Формат : MPEG-PS
    Размер файла : 626 Мбайт
    Продолжительность : 23 м.
    Режим общего битрейта : Переменный
    Общий поток : 3787 Кбит/сек
    Видео
    Идентификатор : 224 (0xE0)
    Формат : MPEG Video
    Версия формата : Version 2
    Профиль формата : Main@Main
    Параметр BVOP формата : Нет
    Параметр матрицы формата : Выборочная
    Параметр GOP формата : Variable
    Продолжительность : 23 м.
    Вид битрейта : Переменный
    Битрейт : 3520 Кбит/сек
    Максимальный битрейт : 15, 0 Мбит/сек
    Ширина : 720 пикселей
    Высота : 576 пикселей
    Соотношение сторон : 4:3
    Частота кадров : 25, 000 кадров/сек
    Стандарт вещания : PAL
    Цветовое пространство : YUV
    Субдискретизация насыщенности : 4:2:0
    Битовая глубина : 8 бит
    Тип развёртки : Прогрессивная
    Порядок развёртки : Верхнее поле первое
    Метод сжатия : С потерями
    Бит/(Пиксели*Кадры) : 0.340
    Временной код первого кадра : 00:00:00:00
    Оригинал временного кода : Group of pictures t_head
    GOP, открыто/закрыто : Открыто
    Размер потока : 582 Мбайт (93%)
    Аудио
    Идентификатор : 192 (0xC0)
    Формат : MPEG Audio
    Версия формата : Version 1
    Профиль формата : Layer 2
    Режим : Dual mono
    Расширение режима : MS Stereo
    Продолжительность : 23 м.
    Вид битрейта : Постоянный
    Битрейт : 192 Кбит/сек
    Каналы : 2 канала
    Частота : 48, 0 КГц
    Метод сжатия : С потерями
    Размер потока : 31, 7 Мбайт (5%)


    Скриншоты для ознакомления




    Онлайн видео Универ. Новая общага (2015) DVB (сезон любимого сериала 10, серии 1



    Универ. Новая общага (2015) DVB (сезон 10, серии 1-18 из 20) (обновляемая)
    загрузка...
    Рейтинг →
     (голосов: 1, оценка 3/5, голосовать можно 1 раз )

    Другие торренты по теме:

  • Универ. Новая общага (2011-2015) SATRip (сезон 1-10, серии 1-199 из 199 + Универ. День открытых дверей + Новогодняя серия 2014) скачать через торрент бесплатно
  • Универ. Новая общага (2011-2016) SATRip (сезон 1-11, серии 1-219 из 219 + Новогодняя серия (2014) + Универ. День открытых дверей)
  • Универ. Новая общага (2011-2017) SATRip / WEB-DLRip (сезон 1-12, серии 1-240 из 240 + Новогодняя серия (2014, 2016) + Универ. День открытых дверей)
  • Универ. Новая общага (2014) WEB-DLRip [H.264] (Сезон 7, серии 121-136) (обновляемая)
  • Универ. Новая общага (2014) WEB-DL [720p] (Сезон 7, серии 121-136) (обновляемая)
  • Универ. Новая общага (2014) WEB-DLRip [H.264 / 720p-LQ] (сезон 7, серии 1-16 из (121-136 из )) (обновляемая)
  • Универ. Новая общага (2015) WEB-DLRip [H.264] (сезон 8, серии 1- из 20) (обновляемая) скачать через торрент бесплатно
  • Универ. Новая общага (2015) WEB-DLRip (сезон 8, серии 1- из 20) (обновляемая) скачать через торрент бесплатно


    • Комментарии (0):

      Информация

      Информация

        Посетители, находящиеся в группе Гости, не могут оставлять комментарии в данной новости.

        ↓ Меню




        ↓ Опрос

        Вы добавили сайт в закладки?
        Да
        Нет


        Top 10 за месяц (Фильмы)