.
Авторизация | Регистрация
Хочешь лучшие торренты? Добавь свой email!
Добавить

Торрент скачать бесплатно

» » Временно недоступен (2015) HDTVRip [H.264] (серии 1-2 из 8) (обновляемая) скачать через торрент бесплатно




    Временно недоступен (2015) HDTVRip [H.264] (серии 1-2 из 8) (обновляемая) скачать через торрент бесплатно

    Опубликовал: Админ | Дата: 22-12-2015, 04:00 | Просмотров: 88

    Производство: Россия/Magic Factory
    Жанр: комедия
    Режиссер: Михаил Хлебородов

    Актеры
    Сергей Безруков, Дмитрий Дюжев, Вера Шпак, Екатерина Федулова, Валерия Ланская, Олег Тактаров, Ричард Бондарев, Дмитрий Хрусталёв, Георгий Мартиросян, Александр Тютин, Сергей Вершинин, Евгения Нохрина, Олег Чудницов, Елена Киркова, Александр Аноприков, Андрей Кивинов, Антон Ескин, Сергей Стёпин, Любовь Фирсова, Андрей Лебедев, Олег Макаров, Бесо Гатаев, Виктор Муравский, Игорь Маслов и др.

    Описание

    Если вы всего лишь мелкий чиновник или следователь следственного отдела, вам наверняка кажется, что ничего экстраординарного в вашей жизни произойти не может, потому что этого не может быть никогда. Но стоит сделать только один неверный шаг, совершить необдуманный поступок, сесть в случайную машину, обнаружить у себя чужие документы, и Ваша жизнь независимо от вас может изменить привычное русло и потечь в неизвестном направлении.

    Дата премьеры в России: 21 декабря 2015
    Продолжительность: ~00: 50: 00 серия
    Качество видео: HDTVRip
    Видео: AVC/H.264, 1024х576 (16: 9), ~2400 kbps
    Аудио: AC3, 2 ch, 192 kbps, CBR
    Код:
    Общее
    Уникальный идентификатор : 241359290459440631288471352232808870259 (0xB5941BC5AF743AD2BF868342FD88F173)
    Полное имя : E:DOWNLOADSВременно недоступен (2015) HDTVRip [H.264]Временно недоступен - 01 серия.mkv
    Формат : Matroska
    Версия формата : Version 2
    Размер файла : 918 Мбайт
    Продолжительность : 49 м.
    Общий поток : 2594 Кбит/сек
    Дата кодирования : UTC 2015-12-21 19:33:20
    Программа кодирования : mkvmerge v7.8.0 (\'River Man\') 32bit built on Apr 3 2015 12:11:22
    Библиотека кодирования : libebml v1.3.1 + libmatroska v1.4.2
    Видео
    Идентификатор : 1
    Формат : AVC
    Формат/Информация : Advanced Video Codec
    Профиль формата :High@L4.1
    Параметр CABAC формата : Да
    Параметр ReFrames формата : 5 кадров
    Идентификатор кодека : V_MPEG4/ISO/AVC
    Продолжительность : 49 м.
    Битрейт : 2400 Кбит/сек
    Ширина : 1024 пикселя
    Высота : 576 пикселей
    Соотношение сторон : 16:9
    Режим частоты кадров : Постоянный
    Частота кадров : 25, 000 кадров/сек
    Цветовое пространство : YUV
    Субдискретизация насыщенности : 4:2:0
    Битовая глубина : 8 бит
    Тип развёртки : Прогрессивная
    Бит/(Пиксели*Кадры) : 0.163
    Размер потока : 832 Мбайт (91%)
    Библиотека кодирования : x264 core 146 r2538 121396c
    Настройки программы : cabac=1/ref=5/deblock=1:-1:-1/analyse=0x3:0x133/me=umh/subme=7/psy=1/psy_rd=1.00:0.00/mixed_ref=1/me_range=16/chroma_me=1/trellis=2/8x8dct=1/cqm=0/deadzone=21, 11/fast_pskip=0/chroma_qp_offset=-2/threads=6/lookahead_threads=1/sliced_threads=0/nr=0/decimate=1/interlaced=0/bluray_compat=0/constrained_intra=0/bframes=3/b_pyramid=2/b_adapt=2/b_bias=0/direct=3/weightb=1/open_gop=0/weightp=2/keyint=250/keyint_min=25/scenecut=40/intra_refresh=0/rc_lookahead=50/rc=2pass/mbtree=1/bitrate=2400/ratetol=1.0/qcomp=0.60/qpmin=0/qpmax=69/qpstep=4/cplxblur=20.0/qblur=0.5/ip_ratio=1.40/aq=1:1.00
    Default : Да
    Forced : Нет
    Аудио
    Идентификатор : 2
    Формат : AC-3
    Формат/Информация : Audio Coding 3
    Расширение режима : CM (complete main)
    Параметр Endianness формата : Big
    Идентификатор кодека : A_AC3
    Продолжительность : 49 м.
    Вид битрейта : Постоянный
    Битрейт : 192 Кбит/сек
    Каналы : 2 канала
    Расположение каналов : Front: L R
    Частота : 48, 0 КГц
    Метод сжатия : С потерями
    Размер потока : 68, 0 Мбайт (7%)
    Default : Да
    Forced : Нет


    Скриншоты для ознакомления




    Онлайн видео Временно недоступен (2015) HDTVRip [H.264] (серии 1



    Временно недоступен (2015) HDTVRip [H.264] (серии 1-2 из 8) (обновляемая)
    загрузка...
    Рейтинг →
     (голосов: 1, оценка 4/5, голосовать можно 1 раз )

    Другие торренты по теме:

  • Временно недоступен (2015) WEB-DL [H.264 / 720p-LQ] (серии 1-6 из 8) (обновляемая) скачать через торрент бесплатно
  • Временно недоступен (2015) WEB-DLRip (серии 1-3 из 8) (обновляемая) скачать через торрент бесплатно
  • Временно недоступен (2015) HDTVRip (серии 1-2 из 8) (обновляемая) скачать через торрент бесплатно
  • Временно недоступен (2015) HDTV [H.264 / 1080i-LQ] (серии 1-2 из 8) (обновляемая) скачать через торрент бесплатно
  • Временно недоступен (2015) SATRip (серии 1-2 из 8) (обновляемая) скачать через торрент бесплатно
  • Временно недоступен (2015) WEB-DLRip [H.264] (серии 1-3 из 8) [MP4|720x400] скачать через торрент бесплатно
  • Временно недоступен (2015) WEB-DLRip [H.264] (серии 1-8 из 8) скачать через торрент бесплатно
  • Временно недоступен (2015) WEB-DLRip [H.264 / 1080p-LQ] (серии 1-8 из 8) скачать через торрент бесплатно


    • Комментарии (0):

      Информация

      Информация

        Посетители, находящиеся в группе Гости, не могут оставлять комментарии в данной новости.

        ↓ Меню




        ↓ Опрос

        Вы добавили сайт в закладки?
        Да
        Нет


        Top 10 за месяц (Фильмы)