.
Авторизация | Регистрация
Хочешь лучшие торренты? Добавь свой email!
Добавить

Торрент скачать бесплатно

» » Лютер / Luther (2015) HDTVRip (сезон 4, серии 1 из 2) Jaskier (обновляемая) скачать через торрент бесплатно




    Лютер / Luther (2015) HDTVRip (сезон 4, серии 1 из 2) Jaskier (обновляемая) скачать через торрент бесплатно

    Опубликовал: Админ | Дата: 21-12-2015, 04:00 | Просмотров: 45

    Производство: Великобритания/British Broadcasting Corporation (BBC)
    Жанр: драма, криминал, детектив
    Режиссер: Сэм Миллер, Брайан Кирк, Стефан Шварц

    Актеры
    Идрис Эльба, Рут Уилсон, Уоррен Браун, Дермот Краули, Майкл Смайли, Никки Амука-Бёрд, Сиенна Гиллори, Стивен Макинтош, Индира Варма, Дэвид О’Хара и др.

    Описание

    История о выдающемся детективе Джоне Лютере, показывающая, что грязный полицейский и грязные методы — разные вещи. Успешность Лютера заключается в высокой раскрываемости преступлений, благодаря его нестандартным методам, которые он использует для поимки опаснейших преступников Лондона. Но сойдут ли с рук главному герою его собственные правила среди букв закона?

    Продолжительность: ~00: 58: 00 серия
    Качество видео: HDTVRip
    Перевод: Многоголосый закадровый, профессиональный -Jaskier
    Видео: XviD, 720x400 (16: 9), ~1500 kb/s
    Аудио Rus: MPEG Layer 3, 44, 1 kHz, 2 ch, 128 kb/s — многоголосый закадровый
    Аудио Eng: MPEG Layer 3, 48, 0 kHz, 2 ch, 128 kb/s — оригинал
    Общее
    Полное имя : D: Лютер (сезон любимого сериала 4) Luther (2015) HDTVRip - Jaskierluther.S04E01.HDTVRip.Rus.Eng.DV.Jaskier.avi
    Формат : AVI
    Формат/Информация : Audio Video Interleave
    Размер файла : 742 Мбайт
    Продолжительность : 58 м.
    Общий поток : 1777 Кбит/сек
    Программа кодирования : VirtualDubModRus 1.5.10.2 (build 2542/release)
    Библиотека кодирования : VirtualDubMod build 2542/release
    Видео
    Идентификатор : 0
    Формат : MPEG-4 Visual
    Профиль формата : Advanced Simple@L5
    Параметр BVOP формата : 2
    Параметр QPel формата : Нет
    Параметр GMC формата : Без точки перехода
    Параметр матрицы формата : Default (H.263)
    Идентификатор кодека : XVID
    Идентификатор кодека/Подсказка : XviD
    Продолжительность : 58 м.
    Битрейт : 1509 Кбит/сек
    Ширина : 720 пикселей
    Высота : 400 пикселей
    Соотношение сторон : 16: 9
    Частота кадров : 25, 000 кадров/сек
    Цветовое пространство : YUV
    Субдискретизация насыщенности : 4: 2: 0
    Битовая глубина : 8 бит
    Тип развёртки : Прогрессивная
    Метод сжатия : С потерями
    Бит/(Пиксели*Кадры) : 0.210
    Размер потока : 630 Мбайт (85%)
    Библиотека кодирования : XviD 64
    Аудио #1
    Идентификатор : 1
    Формат : MPEG Audio
    Версия формата : Version 1
    Профиль формата : Layer 3
    Режим : Joint stereo
    Расширение режима : MS Stereo
    Идентификатор кодека : 55
    Идентификатор кодека/Подсказка : MP3
    Продолжительность : 57 м.
    Вид битрейта : Постоянный
    Битрейт : 128 Кбит/сек
    Каналы : 2 канала
    Частота : 44, 1 КГц
    Метод сжатия : С потерями
    Размер потока : 52, 6 Мбайт (7%)
    Выравнивание : Разделение по промежуткам
    Продолжительность промежутка : 41 мс. (1, 01 видеокадр)
    Время предзагрузки промежутка : 501 мс.
    Аудио #2
    Идентификатор : 2
    Формат : MPEG Audio
    Версия формата : Version 1
    Профиль формата : Layer 3
    Режим : Joint stereo
    Расширение режима : MS Stereo
    Идентификатор кодека : 55
    Идентификатор кодека/Подсказка : MP3
    Продолжительность : 58 м.
    Вид битрейта : Постоянный
    Битрейт : 128 Кбит/сек
    Каналы : 2 канала
    Частота : 48, 0 КГц
    Метод сжатия : С потерями
    Размер потока : 53, 4 Мбайт (7%)
    Выравнивание : Разделение по промежуткам
    Продолжительность промежутка : 40 мс. (1, 00 видеокадр)
    Время предзагрузки промежутка : 500 мс.


    Скриншоты для ознакомления




    Онлайн видео Лютер



    Лютер/Luther (2015) HDTVRip (сезон 4, серии 1 из 2) Jaskier (обновляемая)
    загрузка...
    Рейтинг →
     (голосов: 1, оценка 4/5, голосовать можно 1 раз )

    Другие торренты по теме:

  • Лютер / Luther (2015) HDTV [H.264 / 720p-LQ] (сезон 4, серия 1 из 2) (Jaskier) (обновляемая) скачать через торрент бесплатно
  • Лютер / Luther (2015) HDTVRip [H.264] (сезон 4, серии 1-2 из 2) Jaskier скачать через торрент бесплатно
  • Лютер / Luther (2010-2015) WEB-DLRip (сезоны 1-4, серии 1-16 из 16) (Кубик в Кубе)


    • Комментарии (0):

      Информация

      Информация

        Посетители, находящиеся в группе Гости, не могут оставлять комментарии в данной новости.

        ↓ Меню




        ↓ Опрос

        Вы добавили сайт в закладки?
        Да
        Нет


        Top 10 за месяц (Фильмы)