.
Авторизация | Регистрация
Хочешь лучшие торренты? Добавь свой email!
Добавить

Торрент скачать бесплатно

» » Лютер / Luther (2015) HDTV [H.264 / 720p-LQ] (сезон 4, серия 1 из 2) (Jaskier) (обновляемая) скачать через торрент бесплатно




    Лютер / Luther (2015) HDTV [H.264 / 720p-LQ] (сезон 4, серия 1 из 2) (Jaskier) (обновляемая) скачать через торрент бесплатно

    Опубликовал: Админ | Дата: 21-12-2015, 04:00 | Просмотров: 55

    Производство: Великобритания
    Жанр: драма, криминал, детектив
    Режиссер: Сэм Миллер, Брайан Кирк, Стефан Шварц

    Актеры
    Идрис Эльба, Рут Уилсон, Уоррен Браун, Дермот Краули, Майкл Смайли, Никки Амука-Бёрд, Сиенна Гиллори, Стивен Макинтош, Индира Варма, Дэвид О’Хара и др.

    Описание

    История о выдающемся детективе Джоне Лютере, показывающая, что грязный полицейский и грязные методы — разные вещи. Успешность Лютера заключается в высокой раскрываемости преступлений, благодаря его нестандартным методам, которые он использует для поимки опаснейших преступников Лондона. Но сойдут ли с рук главному герою его собственные правила среди букв закона?

    Продолжительность: ~ 00: 57: 00 серия
    Качество видео: HDTV
    Перевод: Профессиональный многоголосый закадровый -Jaskier
    Автор перевода: Александр Митраков
    Вид субтитров: вшитые отключаемые
    Язык субтитров: русский, английский
    Формат: MKV
    Видео: AVC/H.264, 1280x720 (16: 9), 25 fps, ~2098 Kbps
    Аудио Rus: AC3, 192 kbps, 2 ch, 48 kHz
    Аудио Eng: AC3, 192 kbps, 2 ch, 48 kHz
    Код:
    Общее
    Luther - Лютер. Благодатная почва, сказал кто то из толпы, к чему не понятно. Сезон 4. Jaskier. 720pLuther.S04E01.HDTV.720p.Rus.Eng.Jaskier.mkv
    Формат : Matroska
    Версия формата : Version 4/Version 2
    Размер файла : 1, 02 Гбайт
    Продолжительность : 57 м.
    Общий поток : 2532 Кбит/сек
    Название фильма : Luther s04e01 @ NNM-Club
    Дата кодирования : UTC 2015-12-20 05:12:10
    Программа кодирования : mkvmerge v6.9.1 (\'Blue Panther\') 64bit built on Apr 18 2014 18:23:38
    Библиотека кодирования : libebml v1.3.0 + libmatroska v1.4.1
    Видео
    Идентификатор : 1
    Формат : AVC
    Формат/Информация : Advanced Video Codec
    Профиль формата :High@L4.1
    Параметр CABAC формата : Да
    Параметр ReFrames формата : 5 кадров
    Идентификатор кодека : V_MPEG4/ISO/AVC
    Продолжительность : 57 м.
    Битрейт : 2098 Кбит/сек
    Ширина : 1280 пикселей
    Высота : 720 пикселей
    Соотношение сторон : 16:9
    Режим частоты кадров : Постоянный
    Частота кадров : 25, 000 кадров/сек
    Цветовое пространство : YUV
    Субдискретизация насыщенности : 4:2:0
    Битовая глубина : 8 бит
    Тип развёртки : Прогрессивная
    Бит/(Пиксели*Кадры) : 0.091
    Размер потока : 863 Мбайт (83%)
    Библиотека кодирования : x264 core 148 r2638 7599210
    Настройки программы : cabac=1/ref=5/deblock=1:0:0/analyse=0x3:0x113/me=umh/subme=8/psy=1/psy_rd=1.00:0.00/mixed_ref=1/me_range=16/chroma_me=1/trellis=1/8x8dct=1/cqm=0/deadzone=21, 11/fast_pskip=1/chroma_qp_offset=-2/threads=12/lookahead_threads=2/sliced_threads=0/nr=0/decimate=1/interlaced=0/bluray_compat=0/constrained_intra=0/bframes=3/b_pyramid=2/b_adapt=2/b_bias=0/direct=3/weightb=1/open_gop=0/weightp=2/keyint=250/keyint_min=25/scenecut=40/intra_refresh=0/rc_lookahead=50/rc=crf/mbtree=1/crf=18.0/qcomp=0.60/qpmin=0/qpmax=69/qpstep=4/ip_ratio=1.40/aq=1:1.00
    Язык : English
    Default : Да
    Forced : Нет
    Аудио #1
    Идентификатор : 2
    Формат : AC-3
    Формат/Информация : Audio Coding 3
    Расширение режима : CM (complete main)
    Параметр Endianness формата : Big
    Идентификатор кодека : A_AC3
    Продолжительность : 57 м.
    Вид битрейта : Постоянный
    Битрейт : 192 Кбит/сек
    Каналы : 2 канала
    Расположение каналов : Front: L R
    Частота : 48, 0 КГц
    Метод сжатия : С потерями
    Размер потока : 79, 0 Мбайт (8%)
    Язык : Russian
    Default : Да
    Forced : Нет
    Аудио #2
    Идентификатор : 3
    Формат : AC-3
    Формат/Информация : Audio Coding 3
    Расширение режима : CM (complete main)
    Параметр Endianness формата : Big
    Идентификатор кодека : A_AC3
    Продолжительность : 57 м.
    Вид битрейта : Постоянный
    Битрейт : 192 Кбит/сек
    Каналы : 2 канала
    Расположение каналов : Front: L R
    Частота : 48, 0 КГц
    Метод сжатия : С потерями
    Размер потока : 79, 0 Мбайт (8%)
    Язык : English
    Default : Нет
    Forced : Нет
    Текст #1
    Идентификатор : 4
    Формат : UTF-8
    Идентификатор кодека : S_TEXT/UTF8
    Идентификатор кодека/Информация : UTF-8 Plain Text
    Язык : Russian
    Default : Нет
    Forced : Нет
    Текст #2
    Идентификатор : 5
    Формат : UTF-8
    Идентификатор кодека : S_TEXT/UTF8
    Идентификатор кодека/Информация : UTF-8 Plain Text
    Язык : English
    Default : Нет
    Forced : Нет


    Скриншоты для ознакомления




    Онлайн видео Лютер



    Лютер/Luther (2015) HDTV [H.264/720p-LQ] (сезон 4, серия 1 из 2) (Jaskier) (обновляемая)
    загрузка...
    Рейтинг →
     (голосов: 1, оценка 4/5, голосовать можно 1 раз )

    Другие торренты по теме:

  • Лютер / Luther (2015) HDTVRip (сезон 4, серии 1 из 2) Jaskier (обновляемая) скачать через торрент бесплатно
  • Лютер / Luther (2015) HDTVRip [H.264] (сезон 4, серии 1-2 из 2) Jaskier скачать через торрент бесплатно
  • Лютер / Luther (2010-2015) WEB-DLRip (сезоны 1-4, серии 1-16 из 16) (Кубик в Кубе)


    • Комментарии (0):

      Информация

      Информация

        Посетители, находящиеся в группе Гости, не могут оставлять комментарии в данной новости.

        ↓ Меню




        ↓ Опрос

        Вы добавили сайт в закладки?
        Да
        Нет


        Top 10 за месяц (Фильмы)