.
Авторизация | Регистрация
Хочешь лучшие торренты? Добавь свой email!
Добавить

Торрент скачать бесплатно

» » Метод Фрейда (2015) IPTVRip (сезон 2, серии 1-4 из 12) (обновляемая) скачать через торрент бесплатно




    Метод Фрейда (2015) IPTVRip (сезон 2, серии 1-4 из 12) (обновляемая) скачать через торрент бесплатно

    Опубликовал: Админ | Дата: 21-12-2015, 04:00 | Просмотров: 98

    Телекомпания: Россия/Стар-медиа, Первый канал
    Жанр: детектив, криминал
    Режиссёр: Михаил Вайнберг
    В ролях: Иван Охлобыстин, Наталия Антонова, Елена Николаева, Павел Прилучный, Артур Ваха, Алексей Гришин, Александр Кузнецов, Наталья Рычкова, Алла Подчуфарова, Маргарита Быстрякова, Александр Воробьёв, Вячеслав Яковлев, Виктор Маркин, Михаил Люлинецкий, Ольга Кузина, Иван Руденко и др.

    Описание

    В следственный отдел прокуратуры введен специальный консультант Роман Фрейдин, психолог и профессиональный игрок в покер. В молодости Фрейдин объездил всю Россию и Европу, общался с людьми самых разных профессий. В расследовании преступлений он опирается на интуицию, использует научные методики, воссоздает биокинетические картины событий, психофизические портреты преступников и прогнозирует действия бандитов. Но базовым моментом для Романа является психология.

    Продолжительность: ~ 00: 50: 00 серия
    Качество видео: IPTVRip
    Видео: MPEG4, XviD, 720x400 (16: 9), ~1500 Kbps
    Аудио: AC-3, 48.0 KHz, 2 ch, 192 Kbps, CBR
    Код:
    Формат : AVI
    Формат/Информация : Audio Video Interleave
    Размер файла : 600 Мбайт
    Продолжительность : 48 м.
    Общий поток : 1721 Кбит/сек
    Программа кодирования : VirtualDubMod 1.5.10.3 |www.virtualdub-fr.org|| (build 2550/release)
    Библиотека кодирования : VirtualDubMod build 2550/release
    Видео
    Идентификатор : 0
    Формат : MPEG-4 Visual
    Профиль формата : Advanced Simple@L5
    Параметр BVOP формата : 1
    Параметр QPel формата : Нет
    Параметр GMC формата : Без точки перехода
    Параметр матрицы формата : Выборочная
    Идентификатор кодека : XVID
    Идентификатор кодека/Подсказка : XviD
    Продолжительность : 48 м.
    Битрейт : 1519 Кбит/сек
    Ширина : 720 пикселей
    Высота : 400 пикселей
    Соотношение сторон : 16:9
    Частота кадров : 25, 000 кадров/сек
    Цветовое пространство : YUV
    Субдискретизация насыщенности : 4:2:0
    Битовая глубина : 8 бит
    Тип развёртки : Прогрессивная
    Метод сжатия : С потерями
    Бит/(Пиксели*Кадры) : 0.211
    Размер потока : 530 Мбайт (88%)
    Библиотека кодирования : XviD 73
    Аудио
    Идентификатор : 1
    Формат : AC-3
    Формат/Информация : Audio Coding 3
    Расширение режима : CM (complete main)
    Параметр Endianness формата : Big
    Идентификатор кодека : 2000
    Продолжительность : 48 м.
    Вид битрейта : Постоянный
    Битрейт : 192 Кбит/сек
    Каналы : 2 канала
    Расположение каналов : Front: L R
    Частота : 48, 0 КГц
    Битовая глубина : 16 бит
    Метод сжатия : С потерями
    Размер потока : 67, 0 Мбайт (11%)
    Выравнивание : Разделение по промежуткам
    Продолжительность промежутка : 40 мс. (1, 00 видеокадр)
    Время предзагрузки промежутка : 500 мс.


    Скриншоты для ознакомления




    Онлайн видео Метод Фрейда (2015) IPTVRip (сезон любимого сериала 2, серии 1



    Метод Фрейда (2015) IPTVRip (сезон 2, серии 1-4 из 12) (обновляемая)
    загрузка...
    Рейтинг →
     (голосов: 1, оценка 5/5, голосовать можно 1 раз )

    Другие торренты по теме:

  • Метод Фрейда (2012) WEB-DLRip [H.264 / 720p-LQ] (серии 1-12 из 12) скачать через торрент бесплатно
  • Метод Фрейда (2012) WEB-DLRip [H.264 / 1080p-LQ] (серии 1-12 из 12) скачать через торрент бесплатно
  • Метод Фрейда (2015) WEB-DLRip (сезон 2, серии 1-8 из 12) (обновляемая)
  • Метод Фрейда (2015) WEB-DL [H.264 / 1080p-LQ] (сезон 2, серии 1-4 из 12) (обновляемая)
  • Метод Фрейда (2015) WEB-DLRip [H.264] (сезон 2, серии 1-4 из 12) (обновляемая)
  • Метод Фрейда (2015) WEB-DL [H.264 / 720p-LQ] (сезон 2, серии 1-12 из 12)
  • Метод Фрейда (2015) HDTVRip [H.264 / 720p-LQ] (сезон 2, серии 1-4 из 12) (обновляемая)
  • Метод Фрейда (2015) HDTV [H.264 / 1080p-LQ] (сезон 2, серии 1-4 из 12) (обновляемая)


    • Комментарии (0):

      Информация

      Информация

        Посетители, находящиеся в группе Гости, не могут оставлять комментарии в данной новости.

        ↓ Меню




        ↓ Опрос

        Вы добавили сайт в закладки?
        Да
        Нет


        Top 10 за месяц (Фильмы)