.
Авторизация | Регистрация
Хочешь лучшие торренты? Добавь свой email!
Добавить

Торрент скачать бесплатно

» » Горячая жевательная резинка 3 / Shifshuf Naim (1981) DVD5 скачать через торрент бесплатно




    Горячая жевательная резинка 3 / Shifshuf Naim (1981) DVD5 скачать через торрент бесплатно

    Опубликовал: Админ | Дата: 21-12-2015, 04:00 | Просмотров: 81

    Производство: Израиль, Германия (ФРГ) Noah Films
    Жанр: Комедия, мелодрама
    Режиссер: Боаз Дэвидсон

    Актеры
    Ифтах Кацур, Йонатан Сэгаль, Цахи Ной, Ариелла Рабинович, Орна Дегэн, Рэйчел Стейнер, Менаш Варшавски, Двора Кедар, Ави Хадаш, Зибилле Раух

    Описание

    Подглядывания за девушками в раздевалках, танцы — шманцы — обжиманцы, разговоры про секс и поиски опытных женщин — на что еще взрослеющим мальчикам тратить свое время?! Лента рассказывает о ребятах из ушедшей в прошлое эпохи 50-х годов, а потому все время звучат за кадром песни и мелодии популярных Билла Хэйли и Фрэнки Авалона, Литтл Ричарда и Чака Берри, Ритчи Валенса и Дуэйна Эдди...

    Продолжительность: 01: 26: 50
    Качество видео: DVD5
    Перевод: Многоголосый закадровый
    Вид субтитров: Вшитые отключаемые
    Язык субтитров: Немецкие
    Дополнительные материалы: Нет
    Видео: MPEG-2, PAL 4: 3 720x576@768x576 VBR, ~6298 Кбит/сек, 25, 00 кадр/сек
    Аудио#1: AC3, 2/0ch, 192Kbps (Русский)
    Аудио#2: AC3, 2/0ch, 224Kbps (Немецкий)
    Сэмпл: Ссылка
    Title:
    Size: 4.31 Gb ( 4 515 386 KBytes ) - DVD-5
    Enabled regions: 1, 2, 3, 4, 5, 6, 7, 8
    VTS_01 :
    Play Length: 01: 26: 50
    Video: PAL 4: 3 (720x576) VBR
    Audio:
    Russian (Dolby AC3, 2 ch)
    Deutsch (Dolby AC3, 2 ch)
    Subtitles:
    Deutsch
    Код:

    Общее
    Полное имя : F:[NNM-Club.ru]_Shifshuf.Naim.1981.DVD5_maroder1VIDEO_TSVTS_01_1.VOB
    Формат : MPEG-PS
    Размер файла : 1024 Мбайт
    Продолжительность : 20 м.
    Режим общего битрейта : Переменный
    Общий поток : 6851 Кбит/сек
    Видео
    Идентификатор : 224 (0xE0)
    Формат : MPEG Video
    Версия формата : Version 2
    Профиль формата : Main@Main
    Параметр BVOP формата : Да
    Параметр матрицы формата : Выборочная
    Параметр GOP формата : M=3, N=12
    Продолжительность : 20 м.
    Вид битрейта : Переменный
    Битрейт : 6298 Кбит/сек
    Максимальный битрейт : 9800 Кбит/сек
    Ширина : 720 пикселей
    Высота : 576 пикселей
    Соотношение сторон : 4:3
    Частота кадров : 25, 000 кадров/сек
    Стандарт вещания : PAL
    Цветовое пространство : YUV
    Субдискретизация насыщенности : 4:2:0
    Битовая глубина : 8 бит
    Тип развёртки : Чересстрочная
    Порядок развёртки : Верхнее поле первое
    Метод сжатия : С потерями
    Бит/(Пиксели*Кадры) : 0.607
    Размер потока : 941 Мбайт (92%)
    Аудио #1
    Идентификатор : 189 (0xBD)-128 (0x80)
    Формат : AC-3
    Формат/Информация : Audio Coding 3
    Расширение режима : CM (complete main)
    Параметр Endianness формата : Big
    Режим смешивания : DVD-Video
    Продолжительность : 20 м.
    Вид битрейта : Постоянный
    Битрейт : 192 Кбит/сек
    Каналы : 2 канала
    Расположение каналов : Front: L R
    Частота : 48, 0 КГц
    Битовая глубина : 16 бит
    Метод сжатия : С потерями
    Размер потока : 28, 7 Мбайт (3%)
    Аудио #2
    Идентификатор : 189 (0xBD)-129 (0x81)
    Формат : AC-3
    Формат/Информация : Audio Coding 3
    Расширение режима : CM (complete main)
    Параметр Endianness формата : Big
    Режим смешивания : DVD-Video
    Продолжительность : 20 м.
    Вид битрейта : Постоянный
    Битрейт : 224 Кбит/сек
    Каналы : 2 канала
    Расположение каналов : Front: L R
    Частота : 48, 0 КГц
    Битовая глубина : 16 бит
    Метод сжатия : С потерями
    Размер потока : 33, 5 Мбайт (3%)
    Текст
    Идентификатор : 189 (0xBD)-32 (0x20)
    Формат : RLE
    Формат/Информация : Run-length encoding
    Режим смешивания : DVD-Video
    Меню


    Скриншоты для ознакомления




    Онлайн видео Горячая жевательная резинка 3



    Горячая жевательная резинка 3/Shifshuf Naim (1981) DVD5
    загрузка...
    Рейтинг →
     (голосов: 1, оценка 4/5, голосовать можно 1 раз )

    Другие торренты по теме:

  • Горячая жевательная резинка: Мороженое на палочке / Eskimo Limon (1978) DVDRip [H.264] [VO]
  • Горячая жевательная резинка 2: Постоянная подружка / Yotzim Kavua (1979) DVDRip [H.264] [VO]
  • Горячая жевательная резинка 3 / Shifshuf Naim (1981) DVDRip [H.264]
  • Горячая жевательная резинка 4: Трое в армии / Sapiches (1983) DVDRip [H.264] [AVO]
  • Горячая жевательная резинка 7: Молодая любовь / Ahava Tzeira (1987) DVDRip [H.264] [VO]
  • Горячая жевательная резинка 6: Поднимайте якорь / Harimu Ogen (1985) DVDRip [H.264] [AVO]
  • Горячая жевательная резинка 5: Маленький роман / Roman Zair (1984) DVDRip [H.264] [VO]
  • Горячая жевательная резинка 8: Летний блюз / Summertime Blues: Lemon Popsicle VIII (1988) DVDRip [H.264] [VO]


    • Комментарии (0):

      Информация

      Информация

        Посетители, находящиеся в группе Гости, не могут оставлять комментарии в данной новости.

        ↓ Меню




        ↓ Опрос

        Вы добавили сайт в закладки?
        Да
        Нет


        Top 10 за месяц (Фильмы)