.
Авторизация | Регистрация
Хочешь лучшие торренты? Добавь свой email!
Добавить

Торрент скачать бесплатно

» » Нелепая шестёрка / The Ridiculous 6 (2015) WEBRip [H.264 / 720p-LQ] скачать через торрент бесплатно




    Нелепая шестёрка / The Ridiculous 6 (2015) WEBRip [H.264 / 720p-LQ] скачать через торрент бесплатно

    Опубликовал: Админ | Дата: 21-12-2015, 04:00 | Просмотров: 74

    Производство: США, Happy Madison Productions
    Жанр: Комедия, Вестерн
    Режиссер: Фрэнк Корачи
    Продюсер: Аллен Коверт, Адам Сэндлер, Бэрри Бернарди

    Актеры
    Адам Сэндлер, Тейлор Лотнер, Стив Бушеми, Терри Крюс, Роб Шнайдер, Уитни Каммингс, Харви Кейтель, Ник Нолти, Дэнни Трехо, Люк Уилсон

    Описание

    Комедийный вестерн расскажет историю мужчины, оставшегося в раннем детстве сиротой и выросшего в племени индейцев апачи, которые его воспитали и выучили в своих традициях и законах. Главный герой по прозвищу Белый Нож — преступник, который неожиданно обнаруживает, что не один на свете: у него есть пятеро сводных братьев. Объединившись, они принимают решение отыскать их отца, затерявшегося где-то на просторах Дикого Запада. Вот тут-то и начинаются настоящие приключения, которые настолько же захватывающие, насколько комичны.

    Дата мировой премьеры: 11 декабря 2015
    Продолжительность: 01: 59: 09
    Качество видео: WEBRip
    Перевод: Многоголосый закадровый, профессиональный |Paradox Omskbird records
    Язык субтитров: Английский
    Вид субтитров: Вшитые отключаемые
    Видео: AVC/H.264, 1280x536 (2, 40: 1), ~3270 kbps
    Аудио # rus: AC3, 6 ch, 384 kbps, CBR - многоголосый закадровый
    Аудио # eng: AC3, 6 ch, 384 kbps, CBR
    Код:

    Общее
    Уникальный идентификатор : 199834415734028262586459428303790644254 (0x9656B56171B1E3C796D94ABB3DDB9C1E)
    Полное имя : G:FilmsThe.Ridiculous.6.2015The.Ridiculous.6.2015.720p.WEBRip.Rus.Eng.DD5.1.mkv
    Формат : Matroska
    Версия формата : Version 4/Version 2
    Размер файла : 3, 43 Гбайт
    Продолжительность : 1 ч. 59 м.
    Общий поток : 4120 Кбит/сек
    Дата кодирования : UTC 2015-12-20 12:58:15
    Программа кодирования : mkvmerge v8.6.1 (\'Flying\') 64bit
    Библиотека кодирования : libebml v1.3.3 + libmatroska v1.4.4
    DURATION : 01:59:09.056000000
    NUMBER_OF_FRAMES : 223408
    NUMBER_OF_BYTES : 343154688
    _STATISTICS_WRITING_APP : mkvmerge v8.6.1 (\'Flying\') 64bit
    _STATISTICS_WRITING_DATE_UTC : 2015-12-20 12:58:15
    _STATISTICS_TAGS : BPS DURATION NUMBER_OF_FRAMES NUMBER_OF_BYTES
    Видео
    Идентификатор : 1
    Формат : AVC
    Формат/Информация : Advanced Video Codec
    Профиль формата :High@L4.1
    Параметр CABAC формата : Да
    Параметр ReFrames формата : 12 кадров
    Идентификатор кодека : V_MPEG4/ISO/AVC
    Продолжительность : 1 ч. 59 м.
    Битрейт : 3270 Кбит/сек
    Ширина : 1280 пикселей
    Высота : 536 пикселей
    Соотношение сторон : 2, 40:1
    Режим частоты кадров : Постоянный
    Частота кадров : 23, 976 кадра/сек
    Цветовое пространство : YUV
    Субдискретизация насыщенности : 4:2:0
    Битовая глубина : 8 бит
    Тип развёртки : Прогрессивная
    Бит/(Пиксели*Кадры) : 0.199
    Размер потока : 2, 72 Гбайт (79%)
    Библиотека кодирования : x264 core 144 r2525 40bb568
    Настройки программы : cabac=1/ref=12/deblock=1:-3:-3/analyse=0x3:0x133/me=umh/subme=10/psy=1/psy_rd=1.10:0.00/mixed_ref=1/me_range=32/chroma_me=1/trellis=2/8x8dct=1/cqm=0/deadzone=21, 11/fast_pskip=0/chroma_qp_offset=-2/threads=12/lookahead_threads=2/sliced_threads=0/nr=0/decimate=0/interlaced=0/bluray_compat=0/constrained_intra=0/bframes=8/b_pyramid=2/b_adapt=2/b_bias=0/direct=3/weightb=1/open_gop=0/weightp=2/keyint=250/keyint_min=23/scenecut=40/intra_refresh=0/rc_lookahead=60/rc=crf/mbtree=0/crf=18.0/qcomp=0.75/qpmin=0/qpmax=69/qpstep=4/vbv_maxrate=62500/vbv_bufsize=78125/crf_max=0.0/nal_hrd=none/filler=0/ip_ratio=1.20/pb_ratio=1.10/aq=3:0.70
    Язык : English
    Default : Да
    Forced : Нет
    DURATION : 01:59:09.226000000
    NUMBER_OF_FRAMES : 171410
    NUMBER_OF_BYTES : 2993923347
    _STATISTICS_WRITING_APP : mkvmerge v8.6.1 (\'Flying\') 64bit
    _STATISTICS_WRITING_DATE_UTC : 2015-12-20 12:58:15
    _STATISTICS_TAGS : BPS DURATION NUMBER_OF_FRAMES NUMBER_OF_BYTES
    Аудио #1
    Идентификатор : 2
    Формат : AC-3
    Формат/Информация : Audio Coding 3
    Расширение режима : CM (complete main)
    Параметр Endianness формата : Big
    Идентификатор кодека : A_AC3
    Продолжительность : 1 ч. 59 м.
    Вид битрейта : Постоянный
    Битрейт : 384 Кбит/сек
    Каналы : 6 каналов
    Расположение каналов : Front: L C R, Side: L R, LFE
    Частота : 48, 0 КГц
    Метод сжатия : С потерями
    Размер потока : 327 Мбайт (9%)
    Заголовок : Paradox Omskbird records
    Язык : Russian
    Default : Да
    Forced : Нет
    Аудио #2
    Идентификатор : 3
    Формат : AC-3
    Формат/Информация : Audio Coding 3
    Расширение режима : CM (complete main)
    Параметр Endianness формата : Big
    Идентификатор кодека : A_AC3
    Продолжительность : 1 ч. 59 м.
    Вид битрейта : Постоянный
    Битрейт : 384 Кбит/сек
    Каналы : 6 каналов
    Расположение каналов : Front: L C R, Side: L R, LFE
    Частота : 48, 0 КГц
    Метод сжатия : С потерями
    Размер потока : 327 Мбайт (9%)
    Заголовок : eng
    Язык : English
    Default : Нет
    Forced : Нет
    Текст
    Идентификатор : 4
    Формат : UTF-8
    Идентификатор кодека : S_TEXT/UTF8
    Идентификатор кодека/Информация : UTF-8 Plain Text
    Заголовок : CC
    Язык : English
    Default : Нет
    Forced : Нет


    Скриншоты для ознакомления




    Онлайн видео Нелепая шестёрка



    Нелепая шестёрка/The Ridiculous 6 (2015) WEBRip [H.264/720p-LQ]
    загрузка...
    Рейтинг →
     (голосов: 1, оценка 4/5, голосовать можно 1 раз )

    Другие торренты по теме:

  • Нелепая шестёрка / The Ridiculous 6 (2015) WEBRip [H.264 / 1080p-LQ] [EN / EN Sub] скачать через торрент бесплатно
  • Нелепая шестёрка / The Ridiculous 6 (2015) WEBRip [H.264 / 1080p-LQ] скачать через торрент бесплатно
  • Нелепая шестёрка / The Ridiculous 6 (2015) WEBRip скачать через торрент бесплатно
  • Нелепая шестёрка / The Ridiculous 6 (2015) WEBRip [H.264 / 720p-LQ] скачать через торрент бесплатно
  • Нелепая шестёрка / The Ridiculous 6 (2015) WEBRip [H.264] скачать через торрент бесплатно
  • Нелепая шестёрка / The Ridiculous 6 (2015) WEBRip скачать через торрент бесплатно
  • Нелепая шестёрка / The Ridiculous 6 (2015) WEBRip [H.264 / 2160p]


    • Комментарии (0):

      Информация

      Информация

        Посетители, находящиеся в группе Гости, не могут оставлять комментарии в данной новости.

        ↓ Меню




        ↓ Опрос

        Вы добавили сайт в закладки?
        Да
        Нет


        Top 10 за месяц (Фильмы)