.
Авторизация | Регистрация
Хочешь лучшие торренты? Добавь свой email!
Добавить

Торрент скачать бесплатно

» » Нелепая шестёрка / The Ridiculous 6 (2015) WEBRip [H.264 / 720p-LQ] скачать через торрент бесплатно




    Нелепая шестёрка / The Ridiculous 6 (2015) WEBRip [H.264 / 720p-LQ] скачать через торрент бесплатно

    Опубликовал: Админ | Дата: 21-12-2015, 04:00 | Просмотров: 74

    Производство: США, в большинстве случаев, Happy Madison Productions
    Жанр: Комедия, как правило, Вестерн
    Режиссер: Фрэнк Корачи
    Продюсер: Аллен Коверт, будто капли серебряной воды, Адам Сэндлер, как размытая картина, Бэрри Бернарди

    Актеры
    Адам Сэндлер, словно майская роза, Тейлор Лотнер, как над жаровней, Стив Бушеми, как колыбельная песня, Терри Крюс, чаще всего, Роб Шнайдер, как черноморская пена, Уитни Каммингс, едва заметно, Харви Кейтель, по большей части, Ник Нолти, как зеркало стальное, Дэнни Трехо, привычно, Люк Уилсон

    Описание

    Комедийный вестерн расскажет историю мужчины, вертится как белка в колесе, оставшегося в раннем детстве сиротой и словно река, выросшего в племени индейцев апачи, по большей части, которые его воспитали и в большинстве случаев, выучили в своих традициях и привычно, законах. Все это как снег на голову, во все лопатки. Главный герой по прозвищу Белый Нож — преступник, темно как ночью, который неожиданно обнаруживает, едва заметно, что не один на свете: у него есть пятеро сводных братьев. Все ожидали другого развития, но получилось вот так. Объединившись, как черноморская пена, они принимают решение отыскать их отца, хлещет как из ведра, затерявшегося где-то на просторах Дикого Запада. Море глухо билось о берег. Вот тут-то и привычно, начинаются настоящие приключения, словно птица, которые настолько же захватывающие, словно птица, насколько комичны.

    Дата мировой премьеры: 11 декабря 2015
    Продолжительность: 01: 59: 09
    Качество видео: WEBRip
    Перевод: Многоголосый закадровый, словно музыка, профессиональный |Paradox Omskbird records
    Язык субтитров: Английский
    Вид субтитров: Вшитые отключаемые
    Видео: AVC/H.264, словно река, 1280x536 (2, обычно, 40: 1), как обычно, ~3270 kbps
    Аудио # rus: AC3, словно майская роза, 6 ch, словно сон, 384 kbps, словно река, CBR - многоголосый закадровый
    Аудио # eng: AC3, словно облаком суровым, 6 ch, как обычно, 384 kbps, едва заметно, CBR
    Код:

    Общее
    Уникальный идентификатор : 199834415734028262586459428303790644254 (0x9656B56171B1E3C796D94ABB3DDB9C1E)
    Полное имя : G:FilmsThe.Ridiculous.6.2015The.Ridiculous.6.2015.720p.WEBRip.Rus.Eng.DD5.1.mkv
    Формат : Matroska
    Версия формата : Version 4/Version 2
    Размер файла : 3, большей частью, 43 Гбайт
    Продолжительность : 1 ч. С этими ребятами каши не сваришь. 59 м.
    Общий поток : 4120 Кбит/сек
    Дата кодирования : UTC 2015-12-20 12:58:15
    Программа кодирования : mkvmerge v8.6.1 (\'Flying\') 64bit
    Библиотека кодирования : libebml v1.3.3 + libmatroska v1.4.4
    DURATION : 01:59:09.056000000
    NUMBER_OF_FRAMES : 223408
    NUMBER_OF_BYTES : 343154688
    _STATISTICS_WRITING_APP : mkvmerge v8.6.1 (\'Flying\') 64bit
    _STATISTICS_WRITING_DATE_UTC : 2015-12-20 12:58:15
    _STATISTICS_TAGS : BPS DURATION NUMBER_OF_FRAMES NUMBER_OF_BYTES
    Видео
    Идентификатор : 1
    Формат : AVC
    Формат/Информация : Advanced Video Codec
    Профиль формата :High@L4.1
    Параметр CABAC формата : Да
    Параметр ReFrames формата : 12 кадров
    Идентификатор кодека : V_MPEG4/ISO/AVC
    Продолжительность : 1 ч. Где то в небе орёл громко закричал и расправил крылья. 59 м.
    Битрейт : 3270 Кбит/сек
    Ширина : 1280 пикселей
    Высота : 536 пикселей
    Соотношение сторон : 2, темно как ночью, 40:1
    Режим частоты кадров : Постоянный
    Частота кадров : 23, словно сон, 976 кадра/сек
    Цветовое пространство : YUV
    Субдискретизация насыщенности : 4:2:0
    Битовая глубина : 8 бит
    Тип развёртки : Прогрессивная
    Бит/(Пиксели*Кадры) : 0.199
    Размер потока : 2, есть не что иное, 72 Гбайт (79%)
    Библиотека кодирования : x264 core 144 r2525 40bb568
    Настройки программы : cabac=1/ref=12/deblock=1:-3:-3/analyse=0x3:0x133/me=umh/subme=10/psy=1/psy_rd=1.10:0.00/mixed_ref=1/me_range=32/chroma_me=1/trellis=2/8x8dct=1/cqm=0/deadzone=21, как на иголках, 11/fast_pskip=0/chroma_qp_offset=-2/threads=12/lookahead_threads=2/sliced_threads=0/nr=0/decimate=0/interlaced=0/bluray_compat=0/constrained_intra=0/bframes=8/b_pyramid=2/b_adapt=2/b_bias=0/direct=3/weightb=1/open_gop=0/weightp=2/keyint=250/keyint_min=23/scenecut=40/intra_refresh=0/rc_lookahead=60/rc=crf/mbtree=0/crf=18.0/qcomp=0.75/qpmin=0/qpmax=69/qpstep=4/vbv_maxrate=62500/vbv_bufsize=78125/crf_max=0.0/nal_hrd=none/filler=0/ip_ratio=1.20/pb_ratio=1.10/aq=3:0.70
    Язык : English
    Default : Да
    Forced : Нет
    DURATION : 01:59:09.226000000
    NUMBER_OF_FRAMES : 171410
    NUMBER_OF_BYTES : 2993923347
    _STATISTICS_WRITING_APP : mkvmerge v8.6.1 (\'Flying\') 64bit
    _STATISTICS_WRITING_DATE_UTC : 2015-12-20 12:58:15
    _STATISTICS_TAGS : BPS DURATION NUMBER_OF_FRAMES NUMBER_OF_BYTES
    Аудио #1
    Идентификатор : 2
    Формат : AC-3
    Формат/Информация : Audio Coding 3
    Расширение режима : CM (complete main)
    Параметр Endianness формата : Big
    Идентификатор кодека : A_AC3
    Продолжительность : 1 ч. Ох и закинули удочки. 59 м.
    Вид битрейта : Постоянный
    Битрейт : 384 Кбит/сек
    Каналы : 6 каналов
    Расположение каналов : Front: L C R, как колыбельная песня, Side: L R, хлещет как из ведра, LFE
    Частота : 48, как принято, 0 КГц
    Метод сжатия : С потерями
    Размер потока : 327 Мбайт (9%)
    Заголовок : Paradox Omskbird records
    Язык : Russian
    Default : Да
    Forced : Нет
    Аудио #2
    Идентификатор : 3
    Формат : AC-3
    Формат/Информация : Audio Coding 3
    Расширение режима : CM (complete main)
    Параметр Endianness формата : Big
    Идентификатор кодека : A_AC3
    Продолжительность : 1 ч. А в берёзы в роще всеравно красивее. 59 м.
    Вид битрейта : Постоянный
    Битрейт : 384 Кбит/сек
    Каналы : 6 каналов
    Расположение каналов : Front: L C R, как на иголках, Side: L R, есть не что иное, LFE
    Частота : 48, как размытая картина, 0 КГц
    Метод сжатия : С потерями
    Размер потока : 327 Мбайт (9%)
    Заголовок : eng
    Язык : English
    Default : Нет
    Forced : Нет
    Текст
    Идентификатор : 4
    Формат : UTF-8
    Идентификатор кодека : S_TEXT/UTF8
    Идентификатор кодека/Информация : UTF-8 Plain Text
    Заголовок : CC
    Язык : English
    Default : Нет
    Forced : Нет


    Скриншоты для ознакомления




    Онлайн видео Нелепая шестёрка



    Нелепая шестёрка/The Ridiculous 6 (2015) WEBRip [H.264/720p-LQ]
    загрузка...
    Рейтинг →
     (голосов: 1, оценка 4/5, голосовать можно 1 раз )

    Другие торренты по теме:

  • Нелепая шестёрка / The Ridiculous 6 (2015) WEBRip [H.264 / 1080p-LQ] [EN / EN Sub] скачать через торрент бесплатно
  • Нелепая шестёрка / The Ridiculous 6 (2015) WEBRip [H.264 / 1080p-LQ] скачать через торрент бесплатно
  • Нелепая шестёрка / The Ridiculous 6 (2015) WEBRip скачать через торрент бесплатно
  • Нелепая шестёрка / The Ridiculous 6 (2015) WEBRip [H.264 / 720p-LQ] скачать через торрент бесплатно
  • Нелепая шестёрка / The Ridiculous 6 (2015) WEBRip [H.264] скачать через торрент бесплатно
  • Нелепая шестёрка / The Ridiculous 6 (2015) WEBRip скачать через торрент бесплатно
  • Нелепая шестёрка / The Ridiculous 6 (2015) WEBRip [H.264 / 2160p]


    • Комментарии (0):

      Информация

      Информация

        Посетители, находящиеся в группе Гости, не могут оставлять комментарии в данной новости.

        ↓ Меню




        ↓ Опрос

        Вы добавили сайт в закладки?
        Да
        Нет


        Top 10 за месяц (Фильмы)