.
Авторизация | Регистрация
Хочешь лучшие торренты? Добавь свой email!
Добавить

Торрент скачать бесплатно

» » Охотник за головами (2015) SATRip [H.264] (серии 1-2 из 12) (обновляемая) скачать через торрент бесплатно




    Охотник за головами (2015) SATRip [H.264] (серии 1-2 из 12) (обновляемая) скачать через торрент бесплатно

    Опубликовал: Админ | Дата: 20-12-2015, 04:02 | Просмотров: 65

    Производство: Россия/Радуга фильм по заказу 5 канала
    Жанр: детектив, криминал
    Режиссер: Игорь Москвитин, Сергей Малюгов

    Актеры
    Пётр Кислов, Артур Ваха, Алексей Ведерников , Виктория Маслова, Вера Строкова, Валерий Соловьёв, Алан Томаев, Александр Колесник, Сергей Черапкин, Артур Федынко, Михаил Шеломенцев, Антонио Виллани, Александр Петров , Валентина Шевелева, Инна Ярмошук, Даниил Кокин и др.

    Описание

    Необычный частный сыщик, он же – охотник за головами ловит преступников за назначенное вознаграждение. Вселенная Сани Румянцева – Петербург, его улицы, дворы, крыши. Прикольно все это наверно придумал Китай потратив достаточно времени. Здесь преступникам от него не скрыться. Саня далек от образа крутого парня с пудовыми кулаками, зато оптимизма и духа здорового авантюризма, чувства юмора и находчивости ему не занимать. На него точит зуб криминал, полицейские вынуждены сотрудничать с ним, ведь дикий сыскарь улучшает им статистику, а Румянцеву необходимы деньги и любовь: он сохнет по бывшей супруге Марине, но склеить отношения мешают опасные заказы клиентов и словно облаком суровым истории, в которые вечно попадает хрупкая напарница охотника Тася.

    Дата премьеры в России: 19 декабря 2015 (5 канал)
    Продолжительность: ~ 00: 47: 00 серия
    Качество видео: SATRip
    Видео: AVC/H.264, 720х400 (16: 9), ~1493 Кбит/сек
    Аудио: AC3, 2 канала, 256 Кбит/сек, CBR
    Код:

    Общее
    Уникальный идентификатор : 199137494281728997867166068804879654944 (0x95D07C800A5BA368B1A3832CA7EC2020)
    Полное имя : E:Охотник за головамиОхотник за головами_01 серия rip by_Aleksan55.mkv
    Формат : Matroska
    Версия формата : Version 2
    Размер файла : 600 Мбайт
    Продолжительность : 47 м.
    Общий поток : 1750 Кбит/сек
    Дата кодирования : UTC 2015-12-19 17:34:05
    Программа кодирования : mkvmerge v7.8.0 (\'River Man\') 32bit built on Apr 3 2015 12:11:22
    Библиотека кодирования : libebml v1.3.1 + libmatroska v1.4.2
    Видео
    Идентификатор : 1
    Формат : AVC
    Формат/Информация : Advanced Video Codec
    Профиль формата :High@L4.1
    Параметр CABAC формата : Да
    Параметр ReFrames формата : 9 кадров
    Идентификатор кодека : V_MPEG4/ISO/AVC
    Продолжительность : 47 м.
    Битрейт : 1493 Кбит/сек
    Ширина : 720 пикселей
    Высота : 400 пикселей
    Соотношение сторон : 16:9
    Режим частоты кадров : Постоянный
    Частота кадров : 25, 000 кадров/сек
    Цветовое пространство : YUV
    Субдискретизация насыщенности : 4:2:0
    Битовая глубина : 8 бит
    Тип развёртки : Прогрессивная
    Бит/(Пиксели*Кадры) : 0.207
    Размер потока : 501 Мбайт (83%)
    Библиотека кодирования : x264 core 146 r2538 121396c
    Настройки программы : cabac=1/ref=9/deblock=1:-3:-3/analyse=0x3:0x133/me=umh/subme=9/psy=1/psy_rd=1.00:0.00/mixed_ref=0/me_range=32/chroma_me=1/trellis=2/8x8dct=1/cqm=0/deadzone=21, 11/fast_pskip=1/chroma_qp_offset=-2/threads=6/lookahead_threads=1/sliced_threads=0/nr=0/decimate=1/interlaced=0/bluray_compat=0/constrained_intra=0/bframes=9/b_pyramid=2/b_adapt=2/b_bias=0/direct=3/weightb=1/open_gop=0/weightp=2/keyint=250/keyint_min=25/scenecut=40/intra_refresh=0/rc_lookahead=40/rc=2pass/mbtree=1/bitrate=1493/ratetol=1.0/qcomp=0.60/qpmin=0/qpmax=69/qpstep=4/cplxblur=20.0/qblur=0.5/ip_ratio=1.40/aq=1:1.00
    Default : Да
    Forced : Нет
    Цветовой диапазон : Limited
    Основные цвета : BT.601 PAL
    Характеристики трансфера : BT.470 System B, BT.470 System G
    Коэффициенты матрицы : BT.601
    Аудио
    Идентификатор : 2
    Формат : AC-3
    Формат/Информация : Audio Coding 3
    Расширение режима : CM (complete main)
    Параметр Endianness формата : Big
    Идентификатор кодека : A_AC3
    Продолжительность : 47 м.
    Вид битрейта : Постоянный
    Битрейт : 256 Кбит/сек
    Каналы : 2 канала
    Расположение каналов : Front: L R
    Частота : 48, 0 КГц
    Метод сжатия : С потерями
    Размер потока : 87, 8 Мбайт (15%)
    Default : Да
    Forced : Нет


    Скриншоты для ознакомления




    Онлайн видео Охотник за головами (2015) SATRip [H.264] (серии 1



    Охотник за головами (2015) SATRip [H.264] (серии 1-2 из 12) (обновляемая)
    загрузка...
    Рейтинг →
     (голосов: 1, оценка 4/5, голосовать можно 1 раз )

    Другие торренты по теме:

  • Зубастики: Охотник за головами / Critters: Bounty Hunter (2014) WEB-DL [H.264 / 720p-LQ] [VO] скачать через торрент бесплатно
  • Охотник за головами / The Bounty Hunter (1954) DVDRip [H.264] [VO] скачать через торрент бесплатно
  • Охотник за головами (2015) WEBRip (серии 1-12 из 12)
  • Охотник за головами / The Bounty Hunter (2010) BDRip [H.264]
  • Охотник за головами / The Bounty Hunter (2010) BDRip [H.264 / 1080p-LQ]
  • Охотник за головами / Thе Bоuntу Huntеr (2010) BDRemux [H.264 / 1080p]
  • HeadHunter / Охотник за головами (2001) [Ru / Multi] (0.5.8.2) Repack West4it
  • Бун: Охотник за головами / Boone: The Bounty Hunter (2017) WEB-DLRip [MVO] [AD]


    • Комментарии (0):

      Информация

      Информация

        Посетители, находящиеся в группе Гости, не могут оставлять комментарии в данной новости.

        ↓ Меню




        ↓ Опрос

        Вы добавили сайт в закладки?
        Да
        Нет


        Top 10 за месяц (Фильмы)