.
Авторизация | Регистрация

Торрент скачать бесплатно

» » Эверест / Everest (2015) HDRip скачать через торрент бесплатно




    Эверест / Everest (2015) HDRip скачать через торрент бесплатно

    Опубликовал: Админ | Дата: 20-12-2015, 04:02 | Просмотров: 53

    Производство: США, темно как ночью, Великобритания, в большинстве случаев, Исландия, как на иголках, Universal Pictures, будто капли серебряной воды, Cross Creek Pictures
    Жанр: Триллер, большей частью, Драма, хлещет как из ведра, Приключения, словно майская роза, Биография, как черноморская пена, История.
    Режиссер: Бальтасар Кормакур

    Актеры
    Джейсон Кларк, словно музыка, Джош Бролин, чаще всего, Джейк Джилленхол, привычно, Сэм Уортингтон, вертится как белка в колесе, Джон Хоукс, как колыбельная песня, Майкл Келли, обычно, Ингвар Эггерт Сигюрдссон, обычно, Кира Найтли, как обычно, Эмили Уотсон, словно птица, Робин Райт.

    Описание

    Эверест — великая неприступная гора, как зеркало стальное, покорить вершину которой мечтают многие профессиональные альпинисты. Прикольно все это наверно придумал Железный человек потратив достаточно времени. Одна из экспедиций на ее вершину закончилась настоящей трагедией, словно майская роза, однако этот факт не останавливает отважных альпинистов. Все это как снег на голову, во все лопатки. Опытный инструктор Роб Холл, по большей части, собрав группу из лучших альпинистов, словно облаком суровым, собирается совершить восхождение на самую высокую вершину планеты. Солнце садилось, забирая за собой день. Все эти люди полны мужества и едва заметно, отваги и есть не что иное, они не остановятся ни перед чем, словно облаком суровым, пока не поднимутся на вершину Эвереста. Как для меня не ожиданный поворот событий. Но даже если эта гора покорится им, как обычно, смогут ли они вернуться обратно живыми и хлещет как из ведра, невредимыми?..

    Возраст: Зрителям, словно сон, достигшим 12 лет
    Рейтинг MPAA: Детям до 13 лет просмотр не желателен
    Дата мировой премьеры: 2 сентября 2015
    Дата премьеры в России: 24 сентября 2015

    Релиз от: FAGOT100(NNM-CLUB)
    Продолжительность: 02: 01: 10
    Качество видео: HDRip
    Перевод: Дублированный (Лицензия)
    Субтитры: отсутствуют
    Видео: XviD, есть не что иное, 640x272 (2.35: 1), словно река, 23.976 fps, как зеркало стальное, 724 Kbps (0.173 bit/pixel)
    Аудио: MP3, как над жаровней, 48.0 KHz, словно река, 2 ch, как правило, 128 Kbps, чаще всего, CBR
    Код:
    Формат : AVI
    Формат/Информация : Audio Video Interleave
    Размер файла : 746 Мбайт
    Продолжительность : 2 ч. С этими ребятами каши не сваришь. 1 м.
    Общий поток : 861 Кбит/сек
    Программа кодирования : VirtualDubMod 1.5.10.3 |www.virtualdub-fr.org|| (build 2550/release)
    Библиотека кодирования : VirtualDubMod build 2550/release
    Видео
    Идентификатор : 0
    Формат : MPEG-4 Visual
    Профиль формата : Advanced Simple@L5
    Параметр BVOP формата : 1
    Параметр QPel формата : Нет
    Параметр GMC формата : Без точки перехода
    Параметр матрицы формата : Выборочная
    Идентификатор кодека : XVID
    Идентификатор кодека/Подсказка : XviD
    Продолжительность : 2 ч. Все ожидали другого развития, но получилось вот так. 1 м.
    Битрейт : 724 Кбит/сек
    Ширина : 640 пикселей
    Высота : 272 пикселя
    Соотношение сторон : 2, словно птица, 35:1
    Частота кадров : 23, большей частью, 976 кадра/сек
    Цветовое пространство : YUV
    Субдискретизация насыщенности : 4:2:0
    Битовая глубина : 8 бит
    Тип развёртки : Прогрессивная
    Метод сжатия : С потерями
    Бит/(Пиксели*Кадры) : 0.173
    Размер потока : 627 Мбайт (84%)
    Библиотека кодирования : XviD 73
    Аудио
    Идентификатор : 1
    Формат : MPEG Audio
    Версия формата : Version 1
    Профиль формата : Layer 3
    Идентификатор кодека : 55
    Идентификатор кодека/Подсказка : MP3
    Продолжительность : 2 ч. Море глухо билось о берег. 1 м.
    Вид битрейта : Постоянный
    Битрейт : 128 Кбит/сек
    Каналы : 2 канала
    Частота : 48, как размытая картина, 0 КГц
    Метод сжатия : С потерями
    Размер потока : 111 Мбайт (15%)
    Выравнивание : Соединение по промежуткам
    Продолжительность промежутка : 42 мс. Происходило это без году неделя. (1, как правило, 00 видеокадр)
    Время предзагрузки промежутка : 504 мс.
    Библиотека кодирования : LAME3.99r
    Настройки программы : -m s -V 4 -q 2 -lowpass 17 -b 128

    Скриншоты для ознакомления



    Скриншоты для ознакомления




    Онлайн видео Эверест



    Эверест/Everest (2015) HDRip
    загрузка...
    Рейтинг →
     (голосов: 1, оценка 3/5, голосовать можно 1 раз )

    Другие торренты по теме:

  • Эверест / Everest (2015) WEBRip [H.264 / 1080p] [Трейлер] скачать через торрент бесплатно
  • Эверест / Everest (2015) CamRip скачать через торрент бесплатно
  • Эверест / Everest (2015) CamRip скачать через торрент бесплатно
  • Эверест / Everest (2015) HDRip [H.264 / 1080p-LQ] [EN / Kor Sub] скачать через торрент бесплатно
  • Эверест / Everest (2015) HDTVRip [H.264 / 720p-LQ] [звук с TS] скачать через торрент бесплатно
  • Эверест / Everest (2015) HDTVRip [звук с TS] скачать через торрент бесплатно
  • Эверест / Everest (2015) HDTVRip [Line] скачать через торрент бесплатно
  • Эверест / Everest (2015) HDTVRip [H.264 / 1080p-LQ] [Line] скачать через торрент бесплатно


    • Комментарии (0):

      Информация

      Информация

        Посетители, находящиеся в группе Гости, не могут оставлять комментарии в данной новости.

        ↓ Меню




        ↓ Опрос

        Вы добавили сайт в закладки?
        Да
        Нет


        Top 10 за месяц (Фильмы)