.
Авторизация | Регистрация
Хочешь лучшие торренты? Добавь свой email!
Добавить

Торрент скачать бесплатно

» » Две девицы на мели / Две разорившиеся девочки / 2 Broke Girls (2015) HDTVRip (сезон 5, серии 1-4 из 22) (BraveSound) (обновляемая) скачать через торрент бесплатно




    Две девицы на мели / Две разорившиеся девочки / 2 Broke Girls (2015) HDTVRip (сезон 5, серии 1-4 из 22) (BraveSound) (обновляемая) скачать через торрент бесплатно

    Опубликовал: Админ | Дата: 19-12-2015, 04:00 | Просмотров: 76

    Производство: США
    Жанр: комедия
    Режиссер: Майкл Патрик Кинг, Джейсон Рейли, Дэвид Трейнер, Кэти Гарретсон

    Актеры
    Кэт Деннингс, Бет Берс, Гаррет Моррис, Джонатан Кайт, Мэттью Мой, Дженнифер Кулидж, Ник Зано, Райан Хансен, Брук Лайонс, Ной Миллс и др.

    Описание

    Комедия о двух девушках, которые работают официантками в забегаловке, и которых объединяет общая мечта — открыть успешный бизнес. Конечно, как только они найдут деньги для этого. Колкая, знающая жизнь Макс работает на двух работах только, чтобы свести концы с концами. Одна из этих работ — ночная смена в ретро-закусочной Вильямсбург. Утонченная Кэролайн — бывшая принцесса с трастовым фондом, которой настолько не повезло, что волей-неволей пришлось стать официанткой.

    Продолжительность: ~ 00: 21: 00 серия
    Качество видео: HDTVRip
    Перевод: Любительский одноголосый закадровый -BraveSound
    Озвучка: Богдан Савченко
    Автор перевода: Ирина Хрулёва
    Формат: AVI
    Видео: XviD, 720x400 (16: 9), 23.976 fps, ~1340 kbps, ~0.194 bit/pixel
    Аудио Rus: MP3, 128 kbps, 2 ch, 48 kHz
    Аудио Eng: MP3, 128 kbps, 2 ch, 48 kHz
    Код:
    Общее
    2 Broke Girls - Две разорившиеся девочки. Сезон 5. BraveSound2.Broke.Girls.S05E01.HDTVRip.Rus.Eng.BraveSound.avi
    Формат : AVI
    Формат/Информация : Audio Video Interleave
    Размер файла : 248 Мбайт
    Продолжительность : 21 м.
    Общий поток : 1609 Кбит/сек
    Программа кодирования : VirtualDubModRus 1.5.10.2 (build 2542/release)
    Библиотека кодирования : VirtualDubMod build 2542/release
    Видео
    Идентификатор : 0
    Формат : MPEG-4 Visual
    Профиль формата : Advanced Simple@L5
    Параметр BVOP формата : 1
    Параметр QPel формата : Нет
    Параметр GMC формата : Без точки перехода
    Параметр матрицы формата : Default (MPEG)
    Идентификатор кодека : XVID
    Идентификатор кодека/Подсказка : XviD
    Продолжительность : 21 м.
    Битрейт : 1340 Кбит/сек
    Ширина : 720 пикселей
    Высота : 400 пикселей
    Соотношение сторон : 16:9
    Частота кадров : 23, 976 кадра/сек
    Цветовое пространство : YUV
    Субдискретизация насыщенности : 4:2:0
    Битовая глубина : 8 бит
    Тип развёртки : Прогрессивная
    Метод сжатия : С потерями
    Бит/(Пиксели*Кадры) : 0.194
    Размер потока : 206 Мбайт (83%)
    Библиотека кодирования : XviD 73
    Аудио #1
    Идентификатор : 1
    Формат : MPEG Audio
    Версия формата : Version 1
    Профиль формата : Layer 3
    Режим : Joint stereo
    Расширение режима : MS Stereo
    Идентификатор кодека : 55
    Идентификатор кодека/Подсказка : MP3
    Продолжительность : 21 м.
    Вид битрейта : Постоянный
    Битрейт : 128 Кбит/сек
    Каналы : 2 канала
    Частота : 48, 0 КГц
    Метод сжатия : С потерями
    Размер потока : 19, 7 Мбайт (8%)
    Выравнивание : Соединение по промежуткам
    Продолжительность промежутка : 42 мс. (1, 00 видеокадр)
    Время предзагрузки промежутка : 504 мс.
    Аудио #2
    Идентификатор : 2
    Формат : MPEG Audio
    Версия формата : Version 1
    Профиль формата : Layer 3
    Режим : Joint stereo
    Расширение режима : MS Stereo
    Идентификатор кодека : 55
    Идентификатор кодека/Подсказка : MP3
    Продолжительность : 21 м.
    Вид битрейта : Постоянный
    Битрейт : 128 Кбит/сек
    Каналы : 2 канала
    Частота : 48, 0 КГц
    Метод сжатия : С потерями
    Размер потока : 19, 7 Мбайт (8%)
    Выравнивание : Соединение по промежуткам
    Продолжительность промежутка : 42 мс. (1, 00 видеокадр)
    Время предзагрузки промежутка : 504 мс.
    Библиотека кодирования : LAME3.99r
    Настройки программы : -m j -V 4 -q 2 -lowpass 17 -b 128


    Скриншоты для ознакомления




    Онлайн видео Две девицы на мели



    Две девицы на мели/Две разорившиеся девочки/2 Broke Girls (2015) HDTVRip (сезон 5, серии 1-4 из 22) (BraveSound) (обновляемая)
    загрузка...
    Рейтинг →
     (голосов: 1, оценка 3/5, голосовать можно 1 раз )

    Другие торренты по теме:

  • Две разорившиеся девочки / Две девицы на мели / 2 Broke Girls (2014) HDTVRip (Сезон 4, серия 1 из 24) (BraveSound) (обновляемая)
  • Две разорившиеся девочки / Две девицы на мели / 2 Broke Girls (2014) WEB-DL [H.264 / 720p-LQ] (Сезон 4, серии 1-3 из 24) F-TRAIN (обновляемая) скачать через торрент бесплатно


    • Комментарии (0):

      Информация

      Информация

        Посетители, находящиеся в группе Гости, не могут оставлять комментарии в данной новости.

        ↓ Меню




        ↓ Опрос

        Вы добавили сайт в закладки?
        Да
        Нет


        Top 10 за месяц (Фильмы)