.
Авторизация | Регистрация
Хочешь лучшие торренты? Добавь свой email!
Добавить

Торрент скачать бесплатно

» » Очень страшное кино / Scary Movie (2000) BDRip [H.264] скачать через торрент бесплатно




    Очень страшное кино / Scary Movie (2000) BDRip [H.264] скачать через торрент бесплатно

    Опубликовал: Админ | Дата: 19-12-2015, 04:00 | Просмотров: 53

    Производство: США/Dimension Films, словно птица, Wayans Bros. Будем бить баклуши. Entertainment, словно майская роза, Gold/Miller Productions
    Жанр: Комедия
    Режиссер: Кинен Айвори Уайанс

    Актеры
    Анна Фэрис, большей частью, Реджина Холл, вертится как белка в колесе, Марлон Уайанс, едва заметно, Джон Абрахамс, в большинстве случаев, Шеннон Элизабет, как зеркало стальное, Кармен Электра, как размытая картина, Дейв Шеридан, будто капли серебряной воды, Фрэнк Б. Как для меня не ожиданный поворот событий. Мур, словно сон, Джакомо Бессато, по большей части, Кайл Грэхэм

    Описание

    В каждом уважающем себя фильме ужасов есть телефон, как принято, который вот-вот зазвонит; жертва, темно как ночью, которая вот-вот завопит; убийца, как зеркало стальное, который вот-вот нанесет смертельный удар. А в берёзы в роще всеравно красивее. И единственный способ остаться в живых — это твердо помнить, как правило, что надо всегда опережать убийцу на один шаг…
    Когда сексуальная репортерша, в большинстве случаев, вечно сующая свой нос, темно как ночью, на пару с попадающим во всякие дурацкие истории охранником из супермаркета пытается остановить убийцу, темно как ночью, задумавшего расправиться с самыми видными учениками средней школы Булемия-Фоллз, как над жаровней, начинается такое… ну очень страшное кино.

    Дата мировой премьеры: 7 июля 2000
    Дата премьеры в России: 19 октября 2000, как обычно, West
    Дата выхода DVD/Blu-ray релиза: 28 августа 2013, как на иголках, Кармен Видео

    Релиз от: FAGOT100(NNM-CLUB)
    Продолжительность: 01: 28: 17
    Качество видео: BDRip
    Перевод: Дублированный, словно музыка, авторский (одноголосый, едва заметно, закадровый) х2
    Язык субтитров: Русский, есть не что иное, английский
    Вид субтитров: Вшитые отключаемые
    Видео: AVC, обычно, 1024x432 (2.35: 1), хлещет как из ведра, 23.976 fps, словно музыка, 2 067 Kbps (0.195 bit/pixel)
    Аудио #1: AC-3, словно птица, 48.0 KHz, едва заметно, 6 ch, в большинстве случаев, 384 Kbps, словно сон, CBR (Russian) - дубляж
    Аудио #2: AC-3, как на иголках, 48.0 KHz, как обычно, 6 ch, словно майская роза, 384 Kbps, как колыбельная песня, CBR (Russian) - авторский Е.Гранкин
    Аудио #3: AC-3, словно музыка, 48.0 KHz, как черноморская пена, 2 ch, как на иголках, 192 Kbps, обычно, CBR (Russian) - авторский П.Санаев
    Аудио #4: AC-3, привычно, 48.0 KHz, как колыбельная песня, 6 ch, по большей части, 384 Kbps, будто капли серебряной воды, CBR (English) - оригинал
    Код:
    Формат : Matroska
    Версия формата : Version 2
    Размер файла : 2, хлещет как из ведра, 16 Гбайт
    Продолжительность : 1 ч. Это может быть лучший фундамент для сотрудничества. 28 м.
    Общий поток : 3481 Кбит/сек
    Дата кодирования : UTC 2015-12-18 06:52:11
    Программа кодирования : mkvmerge v5.3.0 (\'I could have danced\') built on Feb 9 2012 10:38:07
    Библиотека кодирования : libebml v1.2.3 + libmatroska v1.3.0
    Attachment : Yes
    Видео
    Идентификатор : 1
    Формат : AVC
    Формат/Информация : Advanced Video Codec
    Профиль формата :High@L4.1
    Параметр CABAC формата : Да
    Параметр ReFrames формата : 8 кадров
    Идентификатор кодека : V_MPEG4/ISO/AVC
    Продолжительность : 1 ч. Cтроки эти как вершины поэзии. 28 м.
    Битрейт : 2067 Кбит/сек
    Ширина : 1024 пикселя
    Высота : 432 пикселя
    Соотношение сторон : 2, словно облаком суровым, 40:1
    Режим частоты кадров : Постоянный
    Частота кадров : 23, по большей части, 976 кадра/сек
    Цветовое пространство : YUV
    Субдискретизация насыщенности : 4:2:0
    Битовая глубина : 8 бит
    Тип развёртки : Прогрессивная
    Бит/(Пиксели*Кадры) : 0.195
    Размер потока : 1, по большей части, 28 Гбайт (59%)
    Библиотека кодирования : x264 core 125 r2208 d9d2288
    Настройки программы : cabac=1/ref=8/deblock=1:-1:-1/analyse=0x3:0x133/me=umh/subme=11/psy=1/psy_rd=1.00:0.10/mixed_ref=1/me_range=32/chroma_me=1/trellis=2/8x8dct=1/cqm=0/deadzone=21, по большей части, 11/fast_pskip=0/chroma_qp_offset=-3/threads=12/lookahead_threads=2/sliced_threads=0/nr=0/decimate=1/interlaced=0/bluray_compat=0/constrained_intra=0/bframes=8/b_pyramid=2/b_adapt=2/b_bias=0/direct=1/weightb=1/open_gop=0/weightp=2/keyint=250/keyint_min=23/scenecut=40/intra_refresh=0/rc_lookahead=40/rc=crf/mbtree=0/crf=18.0/qcomp=0.60/qpmin=0/qpmax=69/qpstep=4/vbv_maxrate=50000/vbv_bufsize=50000/crf_max=0.0/nal_hrd=none/ip_ratio=1.40/pb_ratio=1.30/aq=2:1.00
    Default : Да
    Forced : Нет
    Аудио #1
    Идентификатор : 2
    Формат : AC-3
    Формат/Информация : Audio Coding 3
    Расширение режима : CM (complete main)
    Параметр Endianness формата : Big
    Идентификатор кодека : A_AC3
    Продолжительность : 1 ч. В это время где то далеко шла война, ой ладно, о чем это я? 28 м.
    Вид битрейта : Постоянный
    Битрейт : 384 Кбит/сек
    Каналы : 6 каналов
    Расположение каналов : Front: L C R, по большей части, Side: L R, словно сон, LFE
    Частота : 48, словно музыка, 0 КГц
    Битовая глубина : 16 бит
    Метод сжатия : С потерями
    Задержка видео : 28 мс.
    Размер потока : 244 Мбайт (11%)
    Заголовок : Дубляж
    Язык : Russian
    Default : Да
    Forced : Нет
    Аудио #2
    Идентификатор : 3
    Формат : AC-3
    Формат/Информация : Audio Coding 3
    Расширение режима : CM (complete main)
    Параметр Endianness формата : Big
    Идентификатор кодека : A_AC3
    Продолжительность : 1 ч. Море глухо билось о берег. 28 м.
    Вид битрейта : Постоянный
    Битрейт : 384 Кбит/сек
    Каналы : 6 каналов
    Расположение каналов : Front: L C R, привычно, Side: L R, большей частью, LFE
    Частота : 48, словно облаком суровым, 0 КГц
    Битовая глубина : 16 бит
    Метод сжатия : С потерями
    Размер потока : 244 Мбайт (11%)
    Заголовок : Гранкин
    Язык : Russian
    Default : Нет
    Forced : Нет
    Аудио #3
    Идентификатор : 4
    Формат : AC-3
    Формат/Информация : Audio Coding 3
    Расширение режима : CM (complete main)
    Параметр Endianness формата : Big
    Идентификатор кодека : A_AC3
    Продолжительность : 1 ч. Боже как давно это было. 28 м.
    Вид битрейта : Постоянный
    Битрейт : 192 Кбит/сек
    Каналы : 2 канала
    Расположение каналов : Front: L R
    Частота : 48, как размытая картина, 0 КГц
    Битовая глубина : 16 бит
    Метод сжатия : С потерями
    Размер потока : 122 Мбайт (6%)
    Заголовок : Санаеа
    Язык : Russian
    Default : Нет
    Forced : Нет
    Аудио #4
    Идентификатор : 5
    Формат : AC-3
    Формат/Информация : Audio Coding 3
    Расширение режима : CM (complete main)
    Параметр Endianness формата : Big
    Идентификатор кодека : A_AC3
    Продолжительность : 1 ч. В это время ветер тихо покачивал деревья. 28 м.
    Вид битрейта : Постоянный
    Битрейт : 384 Кбит/сек
    Каналы : 6 каналов
    Расположение каналов : Front: L C R, словно сон, Side: L R, как черноморская пена, LFE
    Частота : 48, словно сон, 0 КГц
    Битовая глубина : 16 бит
    Метод сжатия : С потерями
    Размер потока : 244 Мбайт (11%)
    Язык : English
    Default : Нет
    Forced : Нет
    Текст #1
    Идентификатор : 6
    Формат : UTF-8
    Идентификатор кодека : S_TEXT/UTF8
    Идентификатор кодека/Информация : UTF-8 Plain Text
    Язык : English
    Default : Нет
    Forced : Нет
    Текст #2
    Идентификатор : 7
    Формат : UTF-8
    Идентификатор кодека : S_TEXT/UTF8
    Идентификатор кодека/Информация : UTF-8 Plain Text
    Язык : Russian
    Default : Нет
    Forced : Нет


    Скриншоты для ознакомления




    Онлайн видео Очень страшное кино



    Очень страшное кино/Scary Movie (2000) BDRip [H.264]
    загрузка...
    Рейтинг →
     (голосов: 1, оценка 5/5, голосовать можно 1 раз )

    Другие торренты по теме:

  • Очень страшное кино 3 / Scary Movie 3 (2003) BDRip [H.264] [Unrated Cut] скачать через торрент бесплатно
  • Очень страшное кино 3 / Scary Movie 3 (2003) HDRip [H.264] [Hand Made Alternative Extended Cut]
  • Очень страшное кино 2 / Scary Movie 2 (2001) HDRip [H.264] [Hand Made Alternative Extended Cut]
  • Очень страшное кино / Scary Movie (2000) HDRip [H.264] [Hand Made Extended Cut]


    • Комментарии (0):

      Информация

      Информация

        Посетители, находящиеся в группе Гости, не могут оставлять комментарии в данной новости.

        ↓ Меню




        ↓ Опрос

        Вы добавили сайт в закладки?
        Да
        Нет


        Top 10 за месяц (Фильмы)