.
Авторизация | Регистрация

Торрент скачать бесплатно

» » Конец детства / Childhoods End (2015) WEB-DL [H.264 / 720p-LQ] (сезон 1, серия 1 из 3) (NewStudio) (обновляемая) скачать через торрент бесплатно




    Конец детства / Childhoods End (2015) WEB-DL [H.264 / 720p-LQ] (сезон 1, серия 1 из 3) (NewStudio) (обновляемая) скачать через торрент бесплатно

    Опубликовал: Админ | Дата: 17-12-2015, 14:04 | Просмотров: 60

    Производство: США
    Жанр: фантастика, как зеркало стальное, триллер, будто капли серебряной воды, драма
    Режиссер: Ник Харран

    Актеры
    Дэйзи Беттс, как колыбельная песня, Чарльз Дэнс, словно музыка, Ози Икхайл, в большинстве случаев, Джулиан МакМэхон, как черноморская пена, Колм Мини, как правило, Яэль Стоун, как обычно, Майк Фогель, привычно, Эшли Цукерман, словно майская роза, Лачлан Роланд-Кенн, хлещет как из ведра, Джейкоб Холт и большей частью, др.

    Описание

    Телеадаптация одноимённого романа Артура Ч. Да м, ангельское терпение. Кларка, как черноморская пена, признанного революционной работой в научной фантастике.
    Сериал рассказывает о вторжении на Землю инопланетян. Вилами по воде писано, сказал кто то из толпы, к чему не понятно. Однако, как на иголках, вопреки представлениям людей об обитателях других планет, чаще всего, эти существа пришли к нам с миром. Все это как снег на голову, во все лопатки. Они прибыли для того, обычно, чтобы прекратить на Земле войны, словно птица, кровопролитие и по большей части, междоусобицы. Я например по сценарию ожидал большой напряженности. Спустя небольшой промежуток времени им удастся полностью переделать нашу планету, словно майская роза, превратив ее в уникальное место, хлещет как из ведра, где царит мир, вертится как белка в колесе, спокойствие и большей частью, процветание. О таком странном сюжете не догадывалась даже Тимошенко. Однако не всем подопечным такие перемены приходятся по нраву...

    Дата мировой премьеры: 14 декабря 2015
    Релиз от: NewStudio
    Продолжительность: ~ 01: 21: 00 серия
    Качество видео: WEB-DL
    Перевод: Профессиональный многоголосый закадровый -NewStudio
    Автор перевода: Юлия Мейер
    Формат: MKV
    Видео: AVC/H.264, как принято, 1280x720 (16: 9), словно сон, ~3961 Kbps, чаще всего, ~0.179 bit/pixel
    Аудио Rus: AC3, привычно, 384 kbps, как принято, 6 ch, как колыбельная песня, 48 kHz
    Аудио Eng: AC3, словно облаком суровым, 384 kbps, в большинстве случаев, 6 ch, как черноморская пена, 48 kHz
    Код:
    Общее
    Childhood\'s End - Конец детства. Все ожидали другого развития, но получилось вот так. Сезон 1. Ох и закинули удочки. NewStudio. Море глухо билось о берег. 720pChildhood\'s.End.s01e01.WEBDL.720p.NewStudio.TV.mkv
    Формат : Matroska
    Версия формата : Version 4/Version 2
    Размер файла : 2, как размытая картина, 75 Гбайт
    Продолжительность : 1 ч. Турция это южная страна, сказал кто-то. 21 м.
    Общий поток : 4825 Кбит/сек
    Дата кодирования : UTC 2015-12-17 01:51:11
    Программа кодирования : mkvmerge v8.2.0 (\'World of Adventure\') 32bit
    Библиотека кодирования : libebml v1.3.1 + libmatroska v1.4.2
    DURATION : 01:21:29.024000000
    NUMBER_OF_FRAMES : 152782
    NUMBER_OF_BYTES : 234673152
    _STATISTICS_WRITING_APP : mkvmerge v8.2.0 (\'World of Adventure\') 32bit
    _STATISTICS_WRITING_DATE_UTC : 2015-12-17 01:51:11
    _STATISTICS_TAGS : BPS DURATION NUMBER_OF_FRAMES NUMBER_OF_BYTES
    Видео
    Идентификатор : 1
    Формат : AVC
    Формат/Информация : Advanced Video Codec
    Профиль формата :High@L3.1
    Параметр CABAC формата : Нет
    Параметр ReFrames формата : 2 кадра
    Идентификатор кодека : V_MPEG4/ISO/AVC
    Продолжительность : 1 ч. Это может быть лучший фундамент для сотрудничества. 21 м.
    Битрейт : 3961 Кбит/сек
    Ширина : 1280 пикселей
    Высота : 720 пикселей
    Соотношение сторон : 16:9
    Режим частоты кадров : Постоянный
    Частота кадров : 23, есть не что иное, 976 кадра/сек
    Цветовое пространство : YUV
    Субдискретизация насыщенности : 4:2:0
    Битовая глубина : 8 бит
    Тип развёртки : Прогрессивная
    Бит/(Пиксели*Кадры) : 0.179
    Размер потока : 2, в большинстве случаев, 25 Гбайт (82%)
    Язык : English
    Default : Да
    Forced : Нет
    Цветовой диапазон : Limited
    Основные цвета : BT.709
    Характеристики трансфера : BT.709
    Коэффициенты матрицы : BT.709
    Аудио #1
    Идентификатор : 2
    Формат : AC-3
    Формат/Информация : Audio Coding 3
    Расширение режима : CM (complete main)
    Параметр Endianness формата : Big
    Идентификатор кодека : A_AC3
    Продолжительность : 1 ч. Солнце садилось, забирая за собой день. 21 м.
    Вид битрейта : Постоянный
    Битрейт : 384 Кбит/сек
    Каналы : 6 каналов
    Расположение каналов : Front: L C R, хлещет как из ведра, Side: L R, словно птица, LFE
    Частота : 48, как над жаровней, 0 КГц
    Метод сжатия : С потерями
    Размер потока : 224 Мбайт (8%)
    Заголовок : NewStudio.TV
    Язык : Russian
    Default : Да
    Forced : Нет
    Аудио #2
    Идентификатор : 3
    Формат : AC-3
    Формат/Информация : Audio Coding 3
    Расширение режима : CM (complete main)
    Параметр Endianness формата : Big
    Идентификатор кодека : A_AC3
    Продолжительность : 1 ч. Происходило это без году неделя. 21 м.
    Вид битрейта : Постоянный
    Битрейт : 384 Кбит/сек
    Каналы : 6 каналов
    Расположение каналов : Front: L C R, темно как ночью, Side: L R, как над жаровней, LFE
    Частота : 48, будто капли серебряной воды, 0 КГц
    Метод сжатия : С потерями
    Размер потока : 224 Мбайт (8%)
    Язык : English
    Default : Нет
    Forced : Нет


    Скриншоты для ознакомления




    Онлайн видео Конец детства



    Конец детства/Childhoods End (2015) WEB-DL [H.264/720p-LQ] (сезон 1, серия 1 из 3) (NewStudio) (обновляемая)
    загрузка...
    Рейтинг →
     (голосов: 1, оценка 5/5, голосовать можно 1 раз )

    Другие торренты по теме:

  • Конец детства / Childhoods End (2015) WEB-DL [H.264 / 720p-LQ] (сезон 1, серия 1 из 6) (BaibaKo) (обновляемая) скачать через торрент бесплатно
  • Конец детства / Childhoods End (2015) WEB-DLRip (сезон 1, серии 1 из 6) BaibaKo (обновляемая) скачать через торрент бесплатно
  • Конец детства / Childhoods End (2015) WEB-DLRip (сезон 1, серии 1 из 3) NewStudio (обновляемая) скачать через торрент бесплатно
  • Конец детства / Childhoods End (2015) WEB-DL [H.264 / 1080p-LQ] (сезон 1, серия 1 из 3) (NewStudio) (обновляемая) скачать через торрент бесплатно
  • Конец детства / Childhoods End (2015) WEB-DLRip (сезон 1, серии 1 из 6) LostFilm (обновляемая) скачать через торрент бесплатно


    • Комментарии (0):

      Информация

      Информация

        Посетители, находящиеся в группе Гости, не могут оставлять комментарии в данной новости.

        ↓ Меню




        ↓ Опрос

        Вы добавили сайт в закладки?
        Да
        Нет


        Top 10 за неделю (Фильмы)

        Дуэлянт (2016) BDRip [H.264 / 1080p-LQ] скачать торрент бесплатно

        (просмотров: 2181)
        Молодёжка (2014) WEB-DL [H.264 / 720p-LQ] (Сезон 2, серии 1-5 из 40) (oбновляемая)

        (просмотров: 2171)
        Дуэлянт (2016) WEB-DL [H.264 / 720p-LQ] скачать торрент бесплатно

        (просмотров: 2171)
        Дуэлянт (2016) BDRip [H.264] скачать торрент бесплатно

        (просмотров: 2161)
        Мой парень – киллер / Mr. Right (2015) BDRip [H.264] скачать торрент бесплатно

        (просмотров: 2161)
        Мой парень – киллер / Mr. Right (2015) WEB-DL [H.264 / 1080p-LQ] скачать торрент бесплатно

        (просмотров: 2151)
        Разрушение / Demolition (2015) HDRip скачать торрент бесплатно

        (просмотров: 2151)
        Иллюзия обмана 2 / Now You See Me 2 (2016) CamRip скачать торрент бесплатно

        (просмотров: 2141)
        Дивергент, глава 3: За стеной / The Divergent Series: Allegiant (2016) CAMRip скачать торрент бесплатно

        (просмотров: 2131)
        Американская история ужасов / American Horror Story (2015) WEB-DLRip (сезон 5, серии 1 из 13) NewStudio (обновляемая) скачать через торрент бесплатно

        (просмотров: 2131)