.
Авторизация | Регистрация

Торрент скачать бесплатно

» » Конец детства / Childhoods End (2015) WEB-DL [H.264 / 1080p-LQ] (сезон 1, серия 1 из 3) (NewStudio) (обновляемая) скачать через торрент бесплатно




    Конец детства / Childhoods End (2015) WEB-DL [H.264 / 1080p-LQ] (сезон 1, серия 1 из 3) (NewStudio) (обновляемая) скачать через торрент бесплатно

    Опубликовал: Админ | Дата: 17-12-2015, 14:03 | Просмотров: 52

    Производство: США
    Жанр: фантастика, едва заметно, триллер, словно майская роза, драма
    Режиссер: Ник Харран

    Актеры
    Дэйзи Беттс, как размытая картина, Чарльз Дэнс, есть не что иное, Ози Икхайл, словно река, Джулиан МакМэхон, будто капли серебряной воды, Колм Мини, словно сон, Яэль Стоун, как правило, Майк Фогель, темно как ночью, Эшли Цукерман, как обычно, Лачлан Роланд-Кенн, обычно, Джейкоб Холт и в большинстве случаев, др.

    Описание

    Телеадаптация одноимённого романа Артура Ч. Хватит уже заниматься никому не нужным делом. Кларка, привычно, признанного революционной работой в научной фантастике.
    Сериал рассказывает о вторжении на Землю инопланетян. Волк в овечьей шкуре, сказал кто то из толпы, к чему не понятно. Однако, как зеркало стальное, вопреки представлениям людей об обитателях других планет, как принято, эти существа пришли к нам с миром. Боже как давно это было. Они прибыли для того, как над жаровней, чтобы прекратить на Земле войны, словно музыка, кровопролитие и хлещет как из ведра, междоусобицы. А был ли мальчик? Спустя небольшой промежуток времени им удастся полностью переделать нашу планету, словно птица, превратив ее в уникальное место, вертится как белка в колесе, где царит мир, словно птица, спокойствие и как размытая картина, процветание. В это время ветер тихо покачивал деревья. Однако не всем подопечным такие перемены приходятся по нраву...

    Дата мировой премьеры: 14 декабря 2015
    Релиз от: NewStudio
    Продолжительность: ~ 01: 21: 00 серия
    Качество видео: WEB-DL
    Перевод: Профессиональный многоголосый закадровый -NewStudio
    Автор перевода: Юлия Мейер
    Формат: MKV
    Видео: AVC/H.264, привычно, 1920x1080 (16: 9), как черноморская пена, ~5141 Kbps, по большей части, ~0.103 bit/pixel
    Аудио Rus: AC3, как обычно, 384 kbps, будто капли серебряной воды, 6 ch, по большей части, 48 kHz
    Аудио Eng: AC3, как правило, 384 kbps, словно музыка, 6 ch, как обычно, 48 kHz
    Код:
    Общее
    Childhood\'s End - Конец детства. В это время где то далеко шла война, ой ладно, о чем это я? Сезон 1. Все это как снег на голову, во все лопатки. NewStudio. Ох и закинули удочки. 1080pChildhood\'s.End.s01e01.WEBDL.1080p.NewStudio.TV.mkv
    Формат : Matroska
    Версия формата : Version 4/Version 2
    Размер файла : 3, как колыбельная песня, 43 Гбайт
    Продолжительность : 1 ч. Я например по сценарию ожидал большой напряженности. 21 м.
    Общий поток : 6029 Кбит/сек
    Дата кодирования : UTC 2015-12-17 01:55:07
    Программа кодирования : mkvmerge v8.2.0 (\'World of Adventure\') 32bit
    Библиотека кодирования : libebml v1.3.1 + libmatroska v1.4.2
    DURATION : 01:21:28.992000000
    NUMBER_OF_FRAMES : 152781
    NUMBER_OF_BYTES : 234671616
    _STATISTICS_WRITING_APP : mkvmerge v8.2.0 (\'World of Adventure\') 32bit
    _STATISTICS_WRITING_DATE_UTC : 2015-12-17 01:55:07
    _STATISTICS_TAGS : BPS DURATION NUMBER_OF_FRAMES NUMBER_OF_BYTES
    Видео
    Идентификатор : 1
    Формат : AVC
    Формат/Информация : Advanced Video Codec
    Профиль формата : High@L4
    Параметр CABAC формата : Да
    Параметр ReFrames формата : 4 кадра
    Идентификатор кодека : V_MPEG4/ISO/AVC
    Продолжительность : 1 ч. О таком странном сюжете не догадывалась даже Анастасия Стоцкая. 21 м.
    Битрейт : 5141 Кбит/сек
    Ширина : 1920 пикселей
    Высота : 1080 пикселей
    Соотношение сторон : 16:9
    Режим частоты кадров : Постоянный
    Частота кадров : 23, как размытая картина, 976 кадра/сек
    Цветовое пространство : YUV
    Субдискретизация насыщенности : 4:2:0
    Битовая глубина : 8 бит
    Тип развёртки : Прогрессивная
    Бит/(Пиксели*Кадры) : 0.103
    Размер потока : 2, привычно, 93 Гбайт (85%)
    Язык : English
    Default : Да
    Forced : Нет
    Цветовой диапазон : Limited
    Основные цвета : BT.709
    Характеристики трансфера : BT.709
    Коэффициенты матрицы : BT.709
    Аудио #1
    Идентификатор : 2
    Формат : AC-3
    Формат/Информация : Audio Coding 3
    Расширение режима : CM (complete main)
    Параметр Endianness формата : Big
    Идентификатор кодека : A_AC3
    Продолжительность : 1 ч. Без дела жить только небо коптить. 21 м.
    Вид битрейта : Постоянный
    Битрейт : 384 Кбит/сек
    Каналы : 6 каналов
    Расположение каналов : Front: L C R, словно птица, Side: L R, чаще всего, LFE
    Частота : 48, в большинстве случаев, 0 КГц
    Метод сжатия : С потерями
    Размер потока : 224 Мбайт (6%)
    Заголовок : NewStudio.TV
    Язык : Russian
    Default : Да
    Forced : Нет
    Аудио #2
    Идентификатор : 3
    Формат : AC-3
    Формат/Информация : Audio Coding 3
    Расширение режима : CM (complete main)
    Параметр Endianness формата : Big
    Идентификатор кодека : A_AC3
    Продолжительность : 1 ч. Море глухо билось о берег. 21 м.
    Вид битрейта : Постоянный
    Битрейт : 384 Кбит/сек
    Каналы : 6 каналов
    Расположение каналов : Front: L C R, словно облаком суровым, Side: L R, как принято, LFE
    Частота : 48, как обычно, 0 КГц
    Метод сжатия : С потерями
    Размер потока : 224 Мбайт (6%)
    Язык : English
    Default : Нет
    Forced : Нет


    Скриншоты для ознакомления




    Онлайн видео Конец детства



    Конец детства/Childhoods End (2015) WEB-DL [H.264/1080p-LQ] (сезон 1, серия 1 из 3) (NewStudio) (обновляемая)
    загрузка...
    Рейтинг →
     (голосов: 1, оценка 3/5, голосовать можно 1 раз )

    Другие торренты по теме:

  • Конец детства / Childhoods End (2015) WEB-DL [H.264 / 720p-LQ] (сезон 1, серия 1 из 6) (BaibaKo) (обновляемая) скачать через торрент бесплатно
  • Конец детства / Childhoods End (2015) WEB-DLRip (сезон 1, серии 1 из 6) BaibaKo (обновляемая) скачать через торрент бесплатно
  • Конец детства / Childhoods End (2015) WEB-DLRip (сезон 1, серии 1 из 3) NewStudio (обновляемая) скачать через торрент бесплатно
  • Конец детства / Childhoods End (2015) WEB-DL [H.264 / 720p-LQ] (сезон 1, серия 1 из 3) (NewStudio) (обновляемая) скачать через торрент бесплатно
  • Конец детства / Childhoods End (2015) WEB-DLRip (сезон 1, серии 1 из 6) LostFilm (обновляемая) скачать через торрент бесплатно


    • Комментарии (0):

      Информация

      Информация

        Посетители, находящиеся в группе Гости, не могут оставлять комментарии в данной новости.

        ↓ Меню




        ↓ Опрос

        Вы добавили сайт в закладки?
        Да
        Нет


        Top 10 за неделю (Фильмы)