.
Авторизация | Регистрация
Хочешь лучшие торренты? Добавь свой email!
Добавить

Торрент скачать бесплатно

» » Конец детства / Childhoods End (2015) WEB-DLRip (сезон 1, серии 1 из 3) NewStudio (обновляемая) скачать через торрент бесплатно




    Конец детства / Childhoods End (2015) WEB-DLRip (сезон 1, серии 1 из 3) NewStudio (обновляемая) скачать через торрент бесплатно

    Опубликовал: Админ | Дата: 17-12-2015, 14:03 | Просмотров: 93

    Производство: США
    Жанр: фантастика
    Режиссер: Ник Харран

    Актеры
    Дэйзи Беттс, Чарльз Дэнс, Ози Икхайл, Джулиан МакМэхон, Колм Мини, Яэль Стоун, Майк Фогель, Эшли Цукерман, Лачлан Роланд-Кенн, Джейкоб Холт и др.

    Описание

    Телеадаптация в трёх частях одноимённой книги Артура Ч. Кларка, признанной революционной работой в научной фантастике. Конец детства расскажет о мирном вторжении на Землю таинственных Сверхправителей, прибытие которых знаменует начало десятилетий утопии по инопланетным правилам, в ущерб человеческой идентичности и культуре.

    Дата мировой премьеры: 14 декабря 2015
    Продолжительность: ~01: 21: 00 серия
    Качество видео: WEB-DLRip
    Перевод: Многоголосый закадровый, профессиональный -NewStudio
    Автор перевода: Юлия Мейер
    Видео: XviD, 720x400 (16: 9), ~1430 kb/s
    Аудио Rus: MPEG Layer 3, 48, 0 kHz, 2 ch, 128 kb/s — многоголосый закадровый
    Аудио Eng: MPEG Layer 3, 48, 0 kHz, 2 ch, 128 kb/s — оригинал
    Общее
    Полное имя : D: Конец детства (сезон любимого сериала 1) Childhood\'s End (2015) WEB-DLRip - NewStudioChildhood\'s.End.s01e01.WEBDLRip.NewStudio.avi
    Формат : AVI
    Формат/Информация : Audio Video Interleave
    Размер файла : 991 Мбайт
    Продолжительность : 1 ч. 21 м.
    Общий поток : 1701 Кбит/сек
    Программа кодирования : VirtualDubModRus 1.5.10.2 (build 2542/release)
    Библиотека кодирования : VirtualDubMod build 2542/release
    Видео
    Идентификатор : 0
    Формат : MPEG-4 Visual
    Профиль формата : Advanced Simple@L5
    Параметр BVOP формата : 2
    Параметр QPel формата : Нет
    Параметр GMC формата : Без точки перехода
    Параметр матрицы формата : Default (MPEG)
    Идентификатор кодека : XVID
    Идентификатор кодека/Подсказка : XviD
    Продолжительность : 1 ч. 21 м.
    Битрейт : 1431 Кбит/сек
    Ширина : 720 пикселей
    Высота : 400 пикселей
    Соотношение сторон : 16: 9
    Частота кадров : 23, 976 (23976/1000) кадра/сек
    Цветовое пространство : YUV
    Субдискретизация насыщенности : 4: 2: 0
    Битовая глубина : 8 бит
    Тип развёртки : Прогрессивная
    Метод сжатия : С потерями
    Бит/(Пиксели*Кадры) : 0.207
    Размер потока : 834 Мбайт (84%)
    Библиотека кодирования : XviD 73
    Аудио #1
    Идентификатор : 1
    Формат : MPEG Audio
    Версия формата : Version 1
    Профиль формата : Layer 3
    Режим : Joint stereo
    Расширение режима : MS Stereo
    Идентификатор кодека : 55
    Идентификатор кодека/Подсказка : MP3
    Продолжительность : 1 ч. 21 м.
    Вид битрейта : Постоянный
    Битрейт : 128 Кбит/сек
    Каналы : 2 канала
    Частота : 48, 0 КГц
    Метод сжатия : С потерями
    Размер потока : 74, 6 Мбайт (8%)
    Выравнивание : Соединение по промежуткам
    Продолжительность промежутка : 42 мс. Прикольно все это наверно придумал Шварценеггер потратив достаточно времени. (1, 00 видеокадр)
    Время предзагрузки промежутка : 504 мс.
    Аудио #2
    Идентификатор : 2
    Формат : MPEG Audio
    Версия формата : Version 1
    Профиль формата : Layer 3
    Режим : Joint stereo
    Идентификатор кодека : 55
    Идентификатор кодека/Подсказка : MP3
    Продолжительность : 1 ч. 21 м.
    Вид битрейта : Постоянный
    Битрейт : 128 Кбит/сек
    Каналы : 2 канала
    Частота : 48, 0 КГц
    Метод сжатия : С потерями
    Размер потока : 74, 6 Мбайт (8%)
    Выравнивание : Соединение по промежуткам
    Продолжительность промежутка : 42 мс. (1, 00 видеокадр)
    Время предзагрузки промежутка : 504 мс.
    Библиотека кодирования : LAME3.99.5ЄЄЄЄЄЄЄЄЄЄ


    Скриншоты для ознакомления




    Онлайн видео Конец детства



    Конец детства/Childhoods End (2015) WEB-DLRip (сезон 1, серии 1 из 3) NewStudio (обновляемая)
    загрузка...
    Рейтинг →
     (голосов: 1, оценка 3/5, голосовать можно 1 раз )

    Другие торренты по теме:

  • Конец детства / Childhoods End (2015) WEB-DL [H.264 / 720p-LQ] (сезон 1, серия 1 из 6) (BaibaKo) (обновляемая) скачать через торрент бесплатно
  • Конец детства / Childhoods End (2015) WEB-DLRip (сезон 1, серии 1 из 6) BaibaKo (обновляемая) скачать через торрент бесплатно
  • Конец детства / Childhoods End (2015) WEB-DL [H.264 / 1080p-LQ] (сезон 1, серия 1 из 3) (NewStudio) (обновляемая) скачать через торрент бесплатно
  • Конец детства / Childhoods End (2015) WEB-DL [H.264 / 720p-LQ] (сезон 1, серия 1 из 3) (NewStudio) (обновляемая) скачать через торрент бесплатно
  • Конец детства / Childhoods End (2015) WEB-DLRip (сезон 1, серии 1 из 6) LostFilm (обновляемая) скачать через торрент бесплатно


    • Комментарии (0):

      Информация

      Информация

        Посетители, находящиеся в группе Гости, не могут оставлять комментарии в данной новости.

        ↓ Меню




        ↓ Опрос

        Вы добавили сайт в закладки?
        Да
        Нет


        Top 10 за месяц (Фильмы)