.
Авторизация | Регистрация
Хочешь лучшие торренты? Добавь свой email!
Добавить

Торрент скачать бесплатно

» » Конмэн / Con Man (2015) WEB-DLRip (сезон 1, серии 1-13 из 13) Jaskier скачать через торрент бесплатно




    Конмэн / Con Man (2015) WEB-DLRip (сезон 1, серии 1-13 из 13) Jaskier скачать через торрент бесплатно

    Опубликовал: Админ | Дата: 17-12-2015, 04:00 | Просмотров: 75

    Производство: США/Con Man Productions, Redbear Films Inc
    Жанр: комедия
    Режиссер: Алан Тьюдик

    Актеры
    Алан Тьюдик, Нэйтан Филлион, Минди Стерлинг, Каспер Ван Дин, Триша Хелфер, Эми Акер, Генри Роллинз, Лиза Лапира, Элисон Хэйслип, Лесли Джордан, Шон Эстин, Шон Маэр, Джуэл Стэйт, Джина Торрес, Джосс Уидон и др.

    Описание

    Сериал рассказывает об актёре, когда-то сыгравшем пилота в культовом, но преждевременно закрытом космоэпике под названием Спектрум. С тех пор он регулярно ездил на фестивали типа Комиккона, где встречался с самыми разными забавными людьми и плескался в лучах не особо прибыльной, но всё равно приятной славы. А вместе с ним на эти фестивали ездил его друг, игравший в Спектруме капитана, и в итоге ставший единственным актёром из этого сериала, который добился звёздного статуса.

    Дата мировой премьеры: 30 сентября 2015
    Продолжительность: ~00: 12: 00 серия
    Качество видео: WEB-DLRip
    Перевод: Многоголосый закадровый, профессиональный -Jaskier
    Автор перевода: Александр Тихонов
    Озвучка: Антон Савенков, Наталья Казначеева, Анастасия Жаркова, Таисия Тришина, Сергей Пономарёв, Денис Строев, Рустам Шайхиев, Александр Воронов
    Вид субтитров: отдельным файлом (форсированные) 8, 10 серии
    Язык субтитров: русский
    Видео: XviD, 720x400 (16: 9), ~1500 kb/s
    Аудио Rus: MPEG Layer 3, 48, 0 kHz, 2 ch, 128 kb/s — многоголосый закадровый
    Аудио Eng: MPEG Layer 3, 48, 0 kHz, 2 ch, 128 kb/s — оригинал
    Общее
    Полное имя : D: Конмэн (сезон любимого сериала 1) Con Man (2015) WEB-DLRip - JaskierConMan.S01E01.WEB-DLRip.Rus.Eng.DV.Jaskier.avi
    Формат : AVI
    Формат/Информация : Audio Video Interleave
    Размер файла : 140 Мбайт
    Продолжительность : 10 м.
    Общий поток : 1793 Кбит/сек
    Программа кодирования : VirtualDubModRus 1.5.10.2 (build 2542/release)
    Библиотека кодирования : VirtualDubMod build 2542/release
    Видео
    Идентификатор : 0
    Формат : MPEG-4 Visual
    Профиль формата : Advanced Simple@L5
    Параметр BVOP формата : 2
    Параметр QPel формата : Нет
    Параметр GMC формата : Без точки перехода
    Параметр матрицы формата : Default (H.263)
    Идентификатор кодека : XVID
    Идентификатор кодека/Подсказка : XviD
    Продолжительность : 10 м.
    Битрейт : 1523 Кбит/сек
    Ширина : 720 пикселей
    Высота : 400 пикселей
    Соотношение сторон : 16: 9
    Частота кадров : 23, 976 (24000/1001) кадра/сек
    Цветовое пространство : YUV
    Субдискретизация насыщенности : 4: 2: 0
    Битовая глубина : 8 бит
    Тип развёртки : Прогрессивная
    Метод сжатия : С потерями
    Бит/(Пиксели*Кадры) : 0.221
    Размер потока : 119 Мбайт (85%)
    Библиотека кодирования : XviD 64
    Аудио #1
    Идентификатор : 1
    Формат : MPEG Audio
    Версия формата : Version 1
    Профиль формата : Layer 3
    Режим : Joint stereo
    Расширение режима : MS Stereo
    Идентификатор кодека : 55
    Идентификатор кодека/Подсказка : MP3
    Продолжительность : 10 м.
    Вид битрейта : Постоянный
    Битрейт : 128 Кбит/сек
    Каналы : 2 канала
    Частота : 48, 0 КГц
    Метод сжатия : С потерями
    Размер потока : 10, 0 Мбайт (7%)
    Выравнивание : Разделение по промежуткам
    Продолжительность промежутка : 42 мс. (1, 00 видеокадр)
    Время предзагрузки промежутка : 500 мс.
    Аудио #2
    Идентификатор : 2
    Формат : MPEG Audio
    Версия формата : Version 1
    Профиль формата : Layer 3
    Режим : Joint stereo
    Расширение режима : MS Stereo
    Идентификатор кодека : 55
    Идентификатор кодека/Подсказка : MP3
    Продолжительность : 10 м.
    Вид битрейта : Постоянный
    Битрейт : 128 Кбит/сек
    Каналы : 2 канала
    Частота : 48, 0 КГц
    Метод сжатия : С потерями
    Размер потока : 10, 00 Мбайт (7%)
    Выравнивание : Разделение по промежуткам
    Продолжительность промежутка : 42 мс. (1, 00 видеокадр)
    Время предзагрузки промежутка : 500 мс.


    Скриншоты для ознакомления




    Онлайн видео Конмэн



    Конмэн/Con Man (2015) WEB-DLRip (сезон 1, серии 1-13 из 13) Jaskier
    загрузка...
    Рейтинг →
     (голосов: 1, оценка 3/5, голосовать можно 1 раз )

    Другие торренты по теме:

  • Конмэн / Con Man (2015) WEB-DL [H.264 / 720p-LQ] (сезон 1, серии 1-13 из 13) (Jaskier) скачать через торрент бесплатно
  • Конмэн / Con Man (2015) WEB-DL [H.264 / 1080p-LQ] (сезон 1, серии 1-13 из 13) (Jaskier) скачать через торрент бесплатно


    • Комментарии (0):

      Информация

      Информация

        Посетители, находящиеся в группе Гости, не могут оставлять комментарии в данной новости.

        ↓ Меню




        ↓ Опрос

        Вы добавили сайт в закладки?
        Да
        Нет


        Top 10 за месяц (Фильмы)