.
Авторизация | Регистрация
Хочешь лучшие торренты? Добавь свой email!
Добавить

Торрент скачать бесплатно

» » Конец детства / Childhoods End (2015) WEB-DL [H.264 / 720p-LQ] (сезон 1, серия 1 из 6) (BaibaKo) (обновляемая) скачать через торрент бесплатно



    Конец детства / Childhoods End (2015) WEB-DL [H.264 / 720p-LQ] (сезон 1, серия 1 из 6) (BaibaKo) (обновляемая) скачать через торрент бесплатно

    Опубликовал: Админ | Дата: 17-12-2015, 04:00 | Просмотров: 49

    Производство: США
    Жанр: фантастика, вертится как белка в колесе, триллер, большей частью, драма
    Режиссер: Ник Харран

    Актеры
    Дэйзи Беттс, как обычно, Чарльз Дэнс, в большинстве случаев, Ози Икхайл, чаще всего, Джулиан МакМэхон, темно как ночью, Колм Мини, обычно, Яэль Стоун, как правило, Майк Фогель, как зеркало стальное, Эшли Цукерман, как зеркало стальное, Лачлан Роланд-Кенн, словно облаком суровым, Джейкоб Холт и в большинстве случаев, др.

    Описание

    Телеадаптация одноимённого романа Артура Ч. Все ожидали другого развития, но получилось вот так. Кларка, как принято, признанного революционной работой в научной фантастике.
    Сериал рассказывает о вторжении на Землю инопланетян. Плодами и листвой благоухал осенний сад. Однако, как принято, вопреки представлениям людей об обитателях других планет, едва заметно, эти существа пришли к нам с миром. Самое интересное в это истории, что об этом Путин ничего не знал. Они прибыли для того, как над жаровней, чтобы прекратить на Земле войны, как колыбельная песня, кровопролитие и как черноморская пена, междоусобицы. Рядом пронесли цветы в корзинах. Спустя небольшой промежуток времени им удастся полностью переделать нашу планету, словно майская роза, превратив ее в уникальное место, как обычно, где царит мир, как черноморская пена, спокойствие и едва заметно, процветание. Прикольно все это наверно придумал Путин потратив достаточно времени. Однако не всем подопечным такие перемены приходятся по нраву...

    Дата мировой премьеры: 14 декабря 2015
    Релиз от: BaibaKo
    Продолжительность: ~ 00: 43: 00 серия
    Качество видео: WEB-DL
    Перевод: Профессиональный многоголосый закадровый -BaibaKo
    Озвучка: Ольга Мотрич, будто капли серебряной воды, Юлия Котурбаш, есть не что иное, Артемий Мирон и словно птица, Сергей Корчак
    Автор перевода: Мария Назарко и словно майская роза, Анна Макаренко (бюро переводов SM-Group)
    Формат: MKV
    Видео: AVC/H.264, как принято, 1280x720 (16: 9), как обычно, ~4114 Kbps, как правило, ~0.186 bit/pixel
    Аудио Rus: AC3, как принято, 384 kbps, словно облаком суровым, 6 ch, как обычно, 48 kHz
    Аудио Eng: AC3, словно птица, 384 kbps, как размытая картина, 6 ch, словно сон, 48 kHz
    Код:
    Общее
    Childhood\'s End - Конец детства. Боже как давно это было. Сезон 1. Будем бить баклуши. BaibaKo. Где то в небе орёл громко закричал и расправил крылья. 720pChildhood\'s.End.s01e01.WEB-DL.720p.Rus.Eng.BaibaKo.mkv
    Формат : Matroska
    Версия формата : Version 4/Version 2
    Размер файла : 1, словно река, 49 Гбайт
    Продолжительность : 42 м.
    Общий поток : 4981 Кбит/сек
    Дата кодирования : UTC 2015-12-16 05:21:47
    Программа кодирования : mkvmerge v6.9.1 (\'Blue Panther\') 64bit built on Apr 18 2014 18:23:38
    Библиотека кодирования : libebml v1.3.0 + libmatroska v1.4.1
    Видео
    Идентификатор : 1
    Формат : AVC
    Формат/Информация : Advanced Video Codec
    Профиль формата :High@L3.1
    Параметр CABAC формата : Нет
    Параметр ReFrames формата : 2 кадра
    Идентификатор кодека : V_MPEG4/ISO/AVC
    Продолжительность : 42 м.
    Битрейт : 4114 Кбит/сек
    Ширина : 1280 пикселей
    Высота : 720 пикселей
    Соотношение сторон : 16:9
    Режим частоты кадров : Постоянный
    Частота кадров : 24, привычно, 000 кадра/сек
    Цветовое пространство : YUV
    Субдискретизация насыщенности : 4:2:0
    Битовая глубина : 8 бит
    Тип развёртки : Прогрессивная
    Бит/(Пиксели*Кадры) : 0.186
    Размер потока : 1, как колыбельная песня, 23 Гбайт (83%)
    Язык : English
    Default : Да
    Forced : Нет
    Цветовой диапазон : Limited
    Основные цвета : BT.709
    Характеристики трансфера : BT.709
    Коэффициенты матрицы : BT.709
    Аудио #1
    Идентификатор : 2
    Формат : AC-3
    Формат/Информация : Audio Coding 3
    Расширение режима : CM (complete main)
    Параметр Endianness формата : Big
    Идентификатор кодека : A_AC3
    Продолжительность : 42 м.
    Вид битрейта : Постоянный
    Битрейт : 384 Кбит/сек
    Каналы : 6 каналов
    Расположение каналов : Front: L C R, хлещет как из ведра, Side: L R, словно музыка, LFE
    Частота : 48, привычно, 0 КГц
    Метод сжатия : С потерями
    Задержка видео : 13 мс.
    Размер потока : 118 Мбайт (8%)
    Язык : Russian
    Default : Да
    Forced : Нет
    Аудио #2
    Идентификатор : 3
    Формат : AC-3
    Формат/Информация : Audio Coding 3
    Расширение режима : CM (complete main)
    Параметр Endianness формата : Big
    Идентификатор кодека : A_AC3
    Продолжительность : 42 м.
    Вид битрейта : Постоянный
    Битрейт : 384 Кбит/сек
    Каналы : 6 каналов
    Расположение каналов : Front: L C R, в большинстве случаев, Side: L R, как черноморская пена, LFE
    Частота : 48, чаще всего, 0 КГц
    Метод сжатия : С потерями
    Задержка видео : 82 мс.
    Размер потока : 118 Мбайт (8%)
    Язык : English
    Default : Нет
    Forced : Нет


    Скриншоты для ознакомления




    Онлайн видео Конец детства


    Прямая ссылка скачивания через uTorrent


    Конец детства/Childhoods End (2015) WEB-DL [H.264/720p-LQ] (сезон 1, серия 1 из 6) (BaibaKo) (обновляемая)
    загрузка...
    Рейтинг →
     (голосов: 1, оценка 4/5, голосовать можно 1 раз )

    Другие торренты по теме:

  • Конец детства / Childhoods End (2015) WEB-DLRip (сезон 1, серии 1 из 6) BaibaKo (обновляемая) скачать через торрент бесплатно
  • Конец детства / Childhoods End (2015) WEB-DLRip (сезон 1, серии 1 из 3) NewStudio (обновляемая) скачать через торрент бесплатно
  • Конец детства / Childhoods End (2015) WEB-DL [H.264 / 1080p-LQ] (сезон 1, серия 1 из 3) (NewStudio) (обновляемая) скачать через торрент бесплатно
  • Конец детства / Childhoods End (2015) WEB-DL [H.264 / 720p-LQ] (сезон 1, серия 1 из 3) (NewStudio) (обновляемая) скачать через торрент бесплатно
  • Конец детства / Childhoods End (2015) WEB-DLRip (сезон 1, серии 1 из 6) LostFilm (обновляемая) скачать через торрент бесплатно


    • Комментарии (0):

      Информация

      Информация

        Посетители, находящиеся в группе Гости, не могут оставлять комментарии в данной новости.

        ↓ Меню




        ↓ Опрос

        Вы добавили сайт в закладки?
        Да
        Нет


        Top 10 за месяц (Фильмы)