.
Авторизация | Регистрация
Хочешь лучшие торренты? Добавь свой email!
Добавить

Торрент скачать бесплатно

» » Петля Нестерова (2015) HDTVRip (серии 1-2 из 8) (обновляемая) скачать через торрент бесплатно




    Петля Нестерова (2015) HDTVRip (серии 1-2 из 8) (обновляемая) скачать через торрент бесплатно

    Опубликовал: Админ | Дата: 16-12-2015, 04:00 | Просмотров: 85

    Производство: Россия/Продюсерский Центр Горад и Грин Филмс
    Жанр: криминал, детектив
    Режиссер: Илья Казанков

    Актеры
    Кирилл Запорожский, Карина Разумовская, Оксана Акиньшина, Сергей Горобченко, Сергей Бурунов, Сергей Барковский, Василий Бочкарёв, Евгения Дмитриева, Дмитрий Шевченко, Ирина Пегова, Юрий Ицков, Оксана Базилевич, Валентин Смирнитский, Андрей Истоков, Елена Новикова и др.

    Описание

    В начале 1980-х годов в партийной элите СССР обострилась борьба за власть. Болезнь Леонида Брежнева и тотальная коррупция поставили силовые структуры перед выбором — каким будет будущее страны. Простые люди оказываются, втянуты в беспощадный конфликт двух ведомств КГБ и МВД, за власть. О таком странном сюжете не догадывалась даже Анастасия Стоцкая. Однажды вечером к участковому, старшему лейтенанту милиции Кириллу Нестерову, попадает трудный подросток с подозрительным свертком, в котором оказываются раритетные холсты русских художников. Кирилл и не догадывался, что этот эпизод станет только первой ступенькой в череде дальнейших событий, которые поставят под угрозу не только его взгляды на жизнь, но и саму жизнь!

    Дата премьеры в России: 14 декабря 2015
    Продолжительность: ~00: 55: 00 серия
    Качество видео: HDTVRip
    Видео: XVID, 720х400 (16: 9), ~1800 kbps
    Аудио: AC3, 2 ch, 192 kbps, CBR
    Код:
    Общее
    Полное имя : F:DOWNLOADSПетля Нестерова (2015) HDTVRipПетля Нестерова - 01 серия.avi
    Формат : AVI
    Формат/Информация : Audio Video Interleave
    Размер файла : 765 Мбайт
    Продолжительность : 53 м.
    Общий поток : 2008 Кбит/сек
    Программа кодирования : VirtualDubMod 1.5.10.3 |www.virtualdub-fr.org|| (build 2550/release)
    Библиотека кодирования : VirtualDubMod build 2550/release
    Видео
    Идентификатор : 0
    Формат : MPEG-4 Visual
    Профиль формата : Advanced Simple@L5
    Параметр BVOP формата : 1
    Параметр QPel формата : Нет
    Параметр GMC формата : Без точки перехода
    Параметр матрицы формата : Выборочная
    Идентификатор кодека : XVID
    Идентификатор кодека/Подсказка : XviD
    Продолжительность : 53 м.
    Битрейт : 1807 Кбит/сек
    Ширина : 720 пикселей
    Высота : 400 пикселей
    Соотношение сторон : 16:9
    Частота кадров : 25, 000 кадров/сек
    Цветовое пространство : YUV
    Субдискретизация насыщенности : 4:2:0
    Битовая глубина : 8 бит
    Тип развёртки : Прогрессивная
    Метод сжатия : С потерями
    Бит/(Пиксели*Кадры) : 0.251
    Размер потока : 688 Мбайт (90%)
    Библиотека кодирования : XviD 73
    Аудио
    Идентификатор : 1
    Формат : AC-3
    Формат/Информация : Audio Coding 3
    Расширение режима : CM (complete main)
    Параметр Endianness формата : Big
    Идентификатор кодека : 2000
    Продолжительность : 53 м.
    Вид битрейта : Постоянный
    Битрейт : 192 Кбит/сек
    Каналы : 2 канала
    Расположение каналов : Front: L R
    Частота : 48, 0 КГц
    Метод сжатия : С потерями
    Размер потока : 73, 1 Мбайт (10%)
    Выравнивание : Разделение по промежуткам
    Продолжительность промежутка : 40 мс. Самое интересное в это истории, что об этом Халк ничего не знал. (1, 00 видеокадр)
    Время предзагрузки промежутка : 500 мс.


    Скриншоты для ознакомления




    Онлайн видео Петля Нестерова (2015) HDTVRip (серии 1



    Петля Нестерова (2015) HDTVRip (серии 1-2 из 8) (обновляемая)
    загрузка...
    Рейтинг →
     (голосов: 1, оценка 3/5, голосовать можно 1 раз )

    Другие торренты по теме:

  • Петля Нестерова (2015) WEB-DL [H.264 / 720p-LQ] (серии 1-8 из 8) скачать через торрент бесплатно
  • Петля Нестерова (2015) HDTVRip [H.264] (серии 1- из 8) (обновляемая) скачать через торрент бесплатно
  • Петля Нестерова (2015) HDTV [H.264 / 1080i-LQ] (серии 1-2 из 8) (обновляемая) скачать через торрент бесплатно
  • Петля Нестерова (2015) WEB-DLRip [H.264 / 1080p-LQ] (серии 1-8 из 8) скачать через торрент бесплатно
  • Петля Нестерова (2015) WEB-DLRip [H.264] (серии 1-6 из 8) (обновляемая) скачать через торрент бесплатно
  • Петля Нестерова (2015) WEB-DLRip (серии 1-8 из 8) скачать через торрент бесплатно
  • Петля Нестерова (2015) HDTVRip [H.264 / 720p-LQ] (серии 1-6 из 8) (обновляемая) скачать через торрент бесплатно
  • Петля Нестерова (2015) WEB-DLRip [H.264] (серии 1-8 из 8) скачать через торрент бесплатно


    • Комментарии (0):

      Информация

      Информация

        Посетители, находящиеся в группе Гости, не могут оставлять комментарии в данной новости.

        ↓ Меню




        ↓ Опрос

        Вы добавили сайт в закладки?
        Да
        Нет


        Top 10 за месяц (Фильмы)