.
Авторизация | Регистрация
Хочешь лучшие торренты? Добавь свой email!
Добавить

Торрент скачать бесплатно

» » Великолепный век. Империя Кёсем / Muhtesem Yuzyil. Kosem Baslangic (2015) WEB-DLRip (сезон 1, серии 1-5 из ) turok1990 (обновляемая) скачать через торрент бесплатно




    Великолепный век. Империя Кёсем / Muhtesem Yuzyil. Kosem Baslangic (2015) WEB-DLRip (сезон 1, серии 1-5 из ) turok1990 (обновляемая) скачать через торрент бесплатно

    Опубликовал: Админ | Дата: 15-12-2015, 15:34 | Просмотров: 345

    Производство: Турция, TIMS Productions
    Жанр: Драма, Мелодрама
    Режиссер: Зейнеп Гюнай Тан, Мерт Байкал, Ягиз Алп Акайдын, Дениз Колош

    Актеры
    Анастасия Цилимпоу, Хюлья Авшар, Экин Коч, Фикрет Кушкан, Берен Саат, Чагатай Улусой, Аслихан Гюрбюз, Алиджан Юджесой, Мете Хорозоглу, Тильбе Саран, Альма Терзич, Левент Йылмаз, Йылдыз Чагры Атиксой

    Описание

    Юная Анастасия попала в гарем Ахмеда I из Греции. Своей красотой она заслужила имя Махпейкер (Луноликая). От султана Махпейкер получила имя Кёсем (самая любимая), однако, по некоторым источникам она никогда не была абсолютной фавориткой. За 14 лет рядом с Ахмедом I Кёсем родила ему 13 детей. По словам современников, падишах ни в чем не отказывал султанше, но она была достаточно умна, чтобы не говорить с ним о политике. Настоящая власть пришла к Кёсем лишь после смерти мужа в 1617 году. Янычары сместили следующих султанов - Мустафу I, психически не здорового брата султана, и Османа II, старшего сына Ахмеда и Махфируз, первой любви падишаха. К этому времени Кёсем, находясь вдали от дворца, успела выдать своих повзрослевших дочек за влиятельных османских пашей, окружив себя сильной партией союзников. После Османа, не имевшего детей, на трон взошел сын Ахмеда I - Мурад. Так началось правление самой известной Валиде, получавшей титул регента три раза.

    Дата мировой премьеры: 12.11.2015
    Дата премьеры в России: 2016
    Продолжительность: ~ 02: 32: 15 серия
    Качество видео: WEB-DLRip
    Перевод: Одноголосый закадровый, любительский
    Озвучка/Автор перевода: turok1990
    Вид субтитров: Отсутствуют
    Видео: Xvid, 720x400 (16: 9), ~1 200 Kbps
    Аудио 1: MP3, 2 ch, 44.1 KHz, 192 Kbps - Русский
    Аудио 2: MP3, 2 ch, 44.1 KHz, 192 Kbps - Турецкий
    Код:

    Общее
    Полное имя: Muhtesem Yuzyil.Kosem.s01e01.avi
    Формат : AVI
    Формат/Информация : Audio Video Interleave
    Размер файла : 1, 70 Гбайт
    Продолжительность : 2 ч. 32 м.
    Общий поток : 1599 Кбит/сек
    Программа кодирования : VirtualDubModRus 1.5.10.2 (build 2542/release)
    Библиотека кодирования : VirtualDubMod build 2542/release
    Видео
    Идентификатор : 0
    Формат : MPEG-4 Visual
    Профиль формата : Advanced Simple@L5
    Параметр BVOP формата : 2
    Параметр QPel формата : Нет
    Параметр GMC формата : Без точки перехода
    Параметр матрицы формата : Default (H.263)
    Идентификатор кодека : XVID
    Идентификатор кодека/Подсказка : XviD
    Продолжительность : 2 ч. 32 м.
    Битрейт : 1200 Кбит/сек
    Ширина : 720 пикселей
    Высота : 400 пикселей
    Соотношение сторон : 16:9
    Частота кадров : 25, 000 кадров/сек
    Цветовое пространство : YUV
    Субдискретизация насыщенности : 4:2:0
    Битовая глубина : 8 бит
    Тип развёртки : Прогрессивная
    Метод сжатия : С потерями
    Бит/(Пиксели*Кадры) : 0.167
    Размер потока : 1, 28 Гбайт (75%)
    Библиотека кодирования : XviD 1.2.1 (UTC 2008-12-04)
    Аудио #1
    Идентификатор : 1
    Формат : MPEG Audio
    Версия формата : Version 1
    Профиль формата : Layer 3
    Идентификатор кодека : 55
    Идентификатор кодека/Подсказка : MP3
    Продолжительность : 2 ч. 32 м.
    Вид битрейта : Постоянный
    Битрейт : 192 Кбит/сек
    Каналы : 2 канала
    Частота : 44, 1 КГц
    Метод сжатия : С потерями
    Размер потока : 209 Мбайт (12%)
    Выравнивание : Разделение по промежуткам
    Продолжительность промежутка : 40 мс. (1, 00 видеокадр)
    Время предзагрузки промежутка : 500 мс.
    Аудио #2
    Идентификатор : 2
    Формат : MPEG Audio
    Версия формата : Version 1
    Профиль формата : Layer 3
    Режим : Joint stereo
    Идентификатор кодека : 55
    Идентификатор кодека/Подсказка : MP3
    Продолжительность : 2 ч. 32 м.
    Вид битрейта : Постоянный
    Битрейт : 192 Кбит/сек
    Каналы : 2 канала
    Частота : 44, 1 КГц
    Метод сжатия : С потерями
    Размер потока : 209 Мбайт (12%)
    Выравнивание : Разделение по промежуткам
    Продолжительность промежутка : 40 мс. (1, 00 видеокадр)
    Время предзагрузки промежутка : 500 мс.
    Библиотека кодирования : LAME3.99r
    Настройки программы : -m j -V 4 -q 3 -lowpass 18.6 -b 192


    Скриншоты для ознакомления




    Онлайн видео Великолепный век. Империя Кёсем



    Великолепный век. Империя Кёсем/Muhtesem Yuzyil. Kosem Baslangic (2015) WEB-DLRip (сезон 1, серии 1-5 из ) turok1990 (обновляемая)
    загрузка...
    Рейтинг →
     (голосов: 1, оценка 3/5, голосовать можно 1 раз )

    Другие торренты по теме:

  • Великолепный век. Империя Кёсем / Muhtesem Yuzyil. Kosem Baslangic (2015) WEB-DLRip (сезон 2, серия 1 из ) turok1990 (обновляемая)
  • Великолепный век. Империя Кёсем / Muhtesem Yuzyil. Kosem Baslangic (2015) WEB-DLRip (сезон 2, серии 1-21 из ) turok1990 (обновляемая)


    • Комментарии (0):

      Информация

      Информация

        Посетители, находящиеся в группе Гости, не могут оставлять комментарии в данной новости.

        ↓ Меню




        ↓ Опрос

        Вы добавили сайт в закладки?
        Да
        Нет


        Top 10 за месяц (Фильмы)