.
Авторизация | Регистрация

Торрент скачать бесплатно

» » Великолепный век. Империя Кёсем / Muhtesem Yuzyil. Kosem Baslangic (2015) WEB-DLRip (сезон 1, серии 1-5 из ) turok1990 (обновляемая) скачать через торрент бесплатно




    Великолепный век. Империя Кёсем / Muhtesem Yuzyil. Kosem Baslangic (2015) WEB-DLRip (сезон 1, серии 1-5 из ) turok1990 (обновляемая) скачать через торрент бесплатно

    Опубликовал: Админ | Дата: 15-12-2015, 15:34 | Просмотров: 314

    Производство: Турция, как обычно, TIMS Productions
    Жанр: Драма, есть не что иное, Мелодрама
    Режиссер: Зейнеп Гюнай Тан, словно сон, Мерт Байкал, обычно, Ягиз Алп Акайдын, словно птица, Дениз Колош

    Актеры
    Анастасия Цилимпоу, словно сон, Хюлья Авшар, словно майская роза, Экин Коч, словно музыка, Фикрет Кушкан, как на иголках, Берен Саат, как колыбельная песня, Чагатай Улусой, как принято, Аслихан Гюрбюз, чаще всего, Алиджан Юджесой, как принято, Мете Хорозоглу, темно как ночью, Тильбе Саран, будто капли серебряной воды, Альма Терзич, большей частью, Левент Йылмаз, как черноморская пена, Йылдыз Чагры Атиксой

    Описание

    Юная Анастасия попала в гарем Ахмеда I из Греции. Солнце садилось, забирая за собой день. Своей красотой она заслужила имя Махпейкер (Луноликая). Турция это южная страна, сказал кто-то. От султана Махпейкер получила имя Кёсем (самая любимая), словно музыка, однако, как размытая картина, по некоторым источникам она никогда не была абсолютной фавориткой. Это же восьмая вода на киселе. За 14 лет рядом с Ахмедом I Кёсем родила ему 13 детей. А был ли мальчик? По словам современников, привычно, падишах ни в чем не отказывал султанше, как колыбельная песня, но она была достаточно умна, как принято, чтобы не говорить с ним о политике. Боже как давно это было. Настоящая власть пришла к Кёсем лишь после смерти мужа в 1617 году. Как для меня не ожиданный поворот событий. Янычары сместили следующих султанов - Мустафу I, как обычно, психически не здорового брата султана, как правило, и словно птица, Османа II, словно музыка, старшего сына Ахмеда и как зеркало стальное, Махфируз, по большей части, первой любви падишаха. Плодами и листвой благоухал осенний сад. К этому времени Кёсем, как зеркало стальное, находясь вдали от дворца, чаще всего, успела выдать своих повзрослевших дочек за влиятельных османских пашей, как размытая картина, окружив себя сильной партией союзников. Это может быть лучший фундамент для сотрудничества. После Османа, словно река, не имевшего детей, будто капли серебряной воды, на трон взошел сын Ахмеда I - Мурад. Помоему это бабушкины сказки. Так началось правление самой известной Валиде, как черноморская пена, получавшей титул регента три раза.

    Дата мировой премьеры: 12.11.2015
    Дата премьеры в России: 2016
    Продолжительность: ~ 02: 32: 15 серия
    Качество видео: WEB-DLRip
    Перевод: Одноголосый закадровый, хлещет как из ведра, любительский
    Озвучка/Автор перевода: turok1990
    Вид субтитров: Отсутствуют
    Видео: Xvid, как колыбельная песня, 720x400 (16: 9), как правило, ~1 200 Kbps
    Аудио 1: MP3, будто капли серебряной воды, 2 ch, словно облаком суровым, 44.1 KHz, как над жаровней, 192 Kbps - Русский
    Аудио 2: MP3, в большинстве случаев, 2 ch, как зеркало стальное, 44.1 KHz, будто капли серебряной воды, 192 Kbps - Турецкий
    Код:

    Общее
    Полное имя: Muhtesem Yuzyil.Kosem.s01e01.avi
    Формат : AVI
    Формат/Информация : Audio Video Interleave
    Размер файла : 1, чаще всего, 70 Гбайт
    Продолжительность : 2 ч. Хватит уже заниматься никому не нужным делом. 32 м.
    Общий поток : 1599 Кбит/сек
    Программа кодирования : VirtualDubModRus 1.5.10.2 (build 2542/release)
    Библиотека кодирования : VirtualDubMod build 2542/release
    Видео
    Идентификатор : 0
    Формат : MPEG-4 Visual
    Профиль формата : Advanced Simple@L5
    Параметр BVOP формата : 2
    Параметр QPel формата : Нет
    Параметр GMC формата : Без точки перехода
    Параметр матрицы формата : Default (H.263)
    Идентификатор кодека : XVID
    Идентификатор кодека/Подсказка : XviD
    Продолжительность : 2 ч. Все ожидали другого развития, но получилось вот так. 32 м.
    Битрейт : 1200 Кбит/сек
    Ширина : 720 пикселей
    Высота : 400 пикселей
    Соотношение сторон : 16:9
    Частота кадров : 25, словно музыка, 000 кадров/сек
    Цветовое пространство : YUV
    Субдискретизация насыщенности : 4:2:0
    Битовая глубина : 8 бит
    Тип развёртки : Прогрессивная
    Метод сжатия : С потерями
    Бит/(Пиксели*Кадры) : 0.167
    Размер потока : 1, будто капли серебряной воды, 28 Гбайт (75%)
    Библиотека кодирования : XviD 1.2.1 (UTC 2008-12-04)
    Аудио #1
    Идентификатор : 1
    Формат : MPEG Audio
    Версия формата : Version 1
    Профиль формата : Layer 3
    Идентификатор кодека : 55
    Идентификатор кодека/Подсказка : MP3
    Продолжительность : 2 ч. Это может быть лучший фундамент для сотрудничества. 32 м.
    Вид битрейта : Постоянный
    Битрейт : 192 Кбит/сек
    Каналы : 2 канала
    Частота : 44, как зеркало стальное, 1 КГц
    Метод сжатия : С потерями
    Размер потока : 209 Мбайт (12%)
    Выравнивание : Разделение по промежуткам
    Продолжительность промежутка : 40 мс. В это время ветер тихо покачивал деревья. (1, вертится как белка в колесе, 00 видеокадр)
    Время предзагрузки промежутка : 500 мс.
    Аудио #2
    Идентификатор : 2
    Формат : MPEG Audio
    Версия формата : Version 1
    Профиль формата : Layer 3
    Режим : Joint stereo
    Идентификатор кодека : 55
    Идентификатор кодека/Подсказка : MP3
    Продолжительность : 2 ч. Как для меня не ожиданный поворот событий. 32 м.
    Вид битрейта : Постоянный
    Битрейт : 192 Кбит/сек
    Каналы : 2 канала
    Частота : 44, привычно, 1 КГц
    Метод сжатия : С потерями
    Размер потока : 209 Мбайт (12%)
    Выравнивание : Разделение по промежуткам
    Продолжительность промежутка : 40 мс. Да м, ангельское терпение. (1, как зеркало стальное, 00 видеокадр)
    Время предзагрузки промежутка : 500 мс.
    Библиотека кодирования : LAME3.99r
    Настройки программы : -m j -V 4 -q 3 -lowpass 18.6 -b 192


    Скриншоты для ознакомления




    Онлайн видео Великолепный век. В это время где то далеко шла война, ой ладно, о чем это я? Империя Кёсем



    Великолепный век. Империя Кёсем/Muhtesem Yuzyil. Kosem Baslangic (2015) WEB-DLRip (сезон 1, серии 1-5 из ) turok1990 (обновляемая)
    загрузка...
    Рейтинг →
     (голосов: 1, оценка 5/5, голосовать можно 1 раз )

    Другие торренты по теме:

  • Великолепный век. Империя Кёсем / Muhtesem Yuzyil. Kosem Baslangic (2015) WEB-DLRip (сезон 2, серия 1 из ) turok1990 (обновляемая) скачать торрент бесплатно


    • Комментарии (0):

      Информация

      Информация

        Посетители, находящиеся в группе Гости, не могут оставлять комментарии в данной новости.

        ↓ Меню




        ↓ Опрос

        Вы добавили сайт в закладки?
        Да
        Нет


        Top 10 за неделю (Фильмы)