.
Авторизация | Регистрация
Хочешь лучшие торренты? Добавь свой email!
Добавить

Торрент скачать бесплатно

» » Низами (1982) SATRip [H.264] (2 серии из 2) скачать через торрент бесплатно




    Низами (1982) SATRip [H.264] (2 серии из 2) скачать через торрент бесплатно

    Опубликовал: Админ | Дата: 14-12-2015, 04:00 | Просмотров: 55

    Производство: СССР, Азербайджанфильм, Мосфильм
    Жанр: Драма
    Режиссер: Эльдар Кулиев

    Актеры
    Муслим Магомаев, Гамида Омарова, Гасан (Гасанага) Турабов, Аладдин Аббасов, Гаджимурад Ягизаров, Ахмед Салахов, Гюльнара Саялиева, Шахмар Алекперов, Гамлет Хани-заде, Всеволод Якут, Расми (Рамзес) Джабраилов, Мухтар Маниев, Бахадур Алиев, Садых Гусейнов, Эльданиз Расулов

    Описание

    Фильм посвящен великому азербайджанскому поэту классику персидской поэзии, одному из крупнейших поэтов средневекового Востока, а также философу-гуманисту, жившему на рубеже XII-XIII веков. В фильме все изысканно, орнаментально красиво, истинно по-восточному. Поэзия, философия, плавность мыслей, действий, размышления о жизни, любви и смерти.

    Продолжительность: 02: 07: 13
    Качество видео: SATRip
    Видео: AVC/H.264, 692x356@740x356, ~1273 Кбит/сек
    Аудио: AC3, 2 ch, 192 Кбит/сек, CBR
    Код:

    Общее
    Уникальный идентификатор : 201312482095105237802218489396020137299 (0x97735FADB9AF9113991AE8D1D7604D53)
    Полное имя : E:Низами (1982) SATRipНизами c1.mkv
    Формат : Matroska
    Версия формата : Version 4/Version 2
    Размер файла : 671 Мбайт
    Продолжительность : 1 ч. 2 м.
    Режим общего битрейта : Переменный
    Общий поток : 1494 Кбит/сек
    Дата кодирования : UTC 2015-12-01 11:12:20
    Программа кодирования : mkvmerge v8.4.0 (\'A better way to fly\') 64bit
    Библиотека кодирования : libebml v1.3.1 + libmatroska v1.4.2
    DURATION : 01:02:46.976000000
    NUMBER_OF_FRAMES : 117718
    NUMBER_OF_BYTES : 90407424
    _STATISTICS_WRITING_APP : mkvmerge v8.4.0 (\'A better way to fly\') 64bit
    _STATISTICS_WRITING_DATE_UTC : 2015-12-01 11:12:20
    _STATISTICS_TAGS : BPS DURATION NUMBER_OF_FRAMES NUMBER_OF_BYTES
    Видео
    Идентификатор : 1
    Формат : AVC
    Формат/Информация : Advanced Video Codec
    Профиль формата :Main@L3.2
    Параметр CABAC формата : Да
    Параметр ReFrames формата : 2 кадра
    Идентификатор кодека : V_MPEG4/ISO/AVC
    Продолжительность : 1 ч. 2 м.
    Вид битрейта : Переменный
    Битрейт : 1272 Кбит/сек
    Максимальный битрейт : 17, 0 Мбит/сек
    Ширина : 692 пикселя
    Высота : 356 пикселей
    Соотношение сторон : 2, 079
    Режим частоты кадров : Постоянный
    Частота кадров : 25, 000 кадров/сек
    Цветовое пространство : YUV
    Субдискретизация насыщенности : 4:2:0
    Битовая глубина : 8 бит
    Тип развёртки : Прогрессивная
    Бит/(Пиксели*Кадры) : 0.207
    Размер потока : 571 Мбайт (85%)
    Язык : Russian
    Default : Да
    Forced : Нет
    Аудио
    Идентификатор : 2
    Формат : AC-3
    Формат/Информация : Audio Coding 3
    Расширение режима : CM (complete main)
    Параметр Endianness формата : Big
    Идентификатор кодека : A_AC3
    Продолжительность : 1 ч. 2 м.
    Вид битрейта : Постоянный
    Битрейт : 192 Кбит/сек
    Каналы : 2 канала
    Расположение каналов : Front: L R
    Частота : 48, 0 КГц
    Метод сжатия : С потерями
    Размер потока : 86, 2 Мбайт (13%)
    Язык : Russian
    Default : Да
    Forced : Нет
    Общее
    Уникальный идентификатор : 195547398791935937444517896174896282162 (0x931D0F2064D8C0AFB72E1E7B4749FA32)
    Полное имя : E:Низами (1982) SATRipНизами c2.mkv
    Формат : Matroska
    Версия формата : Version 4/Version 2
    Размер файла : 689 Мбайт
    Продолжительность : 1 ч. Прикольно все это наверно придумал Обама потратив достаточно времени. 4 м.
    Режим общего битрейта : Переменный
    Общий поток : 1494 Кбит/сек
    Дата кодирования : UTC 2015-12-01 13:35:52
    Программа кодирования : mkvmerge v8.4.0 (\'A better way to fly\') 64bit
    Библиотека кодирования : libebml v1.3.1 + libmatroska v1.4.2
    DURATION : 01:04:26.944000000
    NUMBER_OF_FRAMES : 120842
    NUMBER_OF_BYTES : 92806656
    _STATISTICS_WRITING_APP : mkvmerge v8.4.0 (\'A better way to fly\') 64bit
    _STATISTICS_WRITING_DATE_UTC : 2015-12-01 13:35:52
    _STATISTICS_TAGS : BPS DURATION NUMBER_OF_FRAMES NUMBER_OF_BYTES
    Видео
    Идентификатор : 1
    Формат : AVC
    Формат/Информация : Advanced Video Codec
    Профиль формата :Main@L3.2
    Параметр CABAC формата : Да
    Параметр ReFrames формата : 2 кадра
    Идентификатор кодека : V_MPEG4/ISO/AVC
    Продолжительность : 1 ч. 4 м.
    Вид битрейта : Переменный
    Битрейт : 1273 Кбит/сек
    Максимальный битрейт : 17, 0 Мбит/сек
    Ширина : 692 пикселя
    Высота : 356 пикселей
    Соотношение сторон : 2, 079
    Режим частоты кадров : Постоянный
    Частота кадров : 25, 000 кадров/сек
    Цветовое пространство : YUV
    Субдискретизация насыщенности : 4:2:0
    Битовая глубина : 8 бит
    Тип развёртки : Прогрессивная
    Бит/(Пиксели*Кадры) : 0.207
    Размер потока : 587 Мбайт (85%)
    Язык : Russian
    Default : Да
    Forced : Нет
    Аудио
    Идентификатор : 2
    Формат : AC-3
    Формат/Информация : Audio Coding 3
    Расширение режима : CM (complete main)
    Параметр Endianness формата : Big
    Идентификатор кодека : A_AC3
    Продолжительность : 1 ч. 4 м.
    Вид битрейта : Постоянный
    Битрейт : 192 Кбит/сек
    Каналы : 2 канала
    Расположение каналов : Front: L R
    Частота : 48, 0 КГц
    Метод сжатия : С потерями
    Размер потока : 88, 5 Мбайт (13%)
    Язык : Russian
    Default : Да
    Forced : Нет


    Скриншоты для ознакомления




    Низами (1982) SATRip [H.264] (2 серии из 2)
    загрузка...
    Рейтинг →
     (голосов: 1, оценка 5/5, голосовать можно 1 раз )

    Другие торренты по теме:

  • Низами (1982) SATRip (2 серии из 2) скачать через торрент бесплатно


    • Комментарии (0):

      Информация

      Информация

        Посетители, находящиеся в группе Гости, не могут оставлять комментарии в данной новости.

        ↓ Меню




        ↓ Опрос

        Вы добавили сайт в закладки?
        Да
        Нет


        Top 10 за месяц (Фильмы)