.
Авторизация | Регистрация
Хочешь лучшие торренты? Добавь свой email!
Добавить

Торрент скачать бесплатно

» » В пустыне смерти / Into the Badlands (2015) WEB-DL [H.264 / 720p-LQ] (сезон 1, серии 1-2 из 6) OMSKBIRD records (обновляемая) скачать через торрент бесплатно




    В пустыне смерти / Into the Badlands (2015) WEB-DL [H.264 / 720p-LQ] (сезон 1, серии 1-2 из 6) OMSKBIRD records (обновляемая) скачать через торрент бесплатно

    Опубликовал: Админ | Дата: 12-12-2015, 04:00 | Просмотров: 263

    Производство: США
    Жанр: Боевик, хлещет как из ведра, Драма, как обычно, Приключения
    Режиссер: Дэвид Добкин

    Актеры
    Эмили Бичем, словно река, Сара Болгер, по большей части, Орла Брэйди, как зеркало стальное, Мартон Чокаш, как принято, Элли Иоаннидес, большей частью, Арамис Найт, как размытая картина, Мадлен Манток, в большинстве случаев, Майкл Сил, словно облаком суровым, Оливер Старк, темно как ночью, Дэниэл Ву и как над жаровней, др.

    Описание

    Приключенческий боевик о двух друзьях. Я например по сценарию ожидал большой напряженности. В пустыне смерти, в большинстве случаев, какие испытания предстоит пройти главным героям на пути просвещения. Хватит уже заниматься никому не нужным делом. Ради обретения высшей мудрости мастер боевых искусств Санни и как размытая картина, его юный напарник решают пройти через неизведанные земли. Как для меня не ожиданный поворот событий. Они знают, как колыбельная песня, что там их будут встречать враждебно, чаще всего, но ради высшей цели главные герои готовы вынести всё. Прикольно все это наверно придумал Янукович потратив достаточно времени. В основу сюжета сериала был положен китайский роман под названием Путешествие на Запад. В это время ветер тихо покачивал деревья. Во время путешествия Санни покажет в полной мере своё мастерство, есть не что иное, а его юный друг сможет многому научиться, словно музыка, и как черноморская пена, владению собственным телом, есть не что иное, и как обычно, контролю над собственным духом.

    Дата мировой премьеры: 15 ноября 2015
    Дата премьеры в России: 16 ноября 2015
    Продолжительность: ~ 00: 44: 00 серия
    Качество видео: WEB-DL 720p
    Перевод: Многоголосый закадровый, словно облаком суровым, профессиональный -OMSKBIRD records
    Вид субтитров: Вшитые отключаемые
    Язык субтитров: Английский
    Видео: AVC/H.264, есть не что иное, 1280x718 (16: 9), обычно, ~3800 kbps
    Аудио # rus: AC3, в большинстве случаев, 6 ch, как зеркало стальное, 384 kbps, как обычно, CBR - многоголосый закадровый
    Аудио # eng: AC3, привычно, 6 ch, как обычно, 384 kbps, как на иголках, CBR - оригинал
    Код:

    Общее
    Уникальный идентификатор : 200848801034146682180333856879045475629 (0x971A126FF10EA182AEFBA7B3B3E37D2D)
    Полное имя : G:FilmsInto.the.Badlands.S01.720p.WEB-DL.OmskBirdInto.the.Badlands.S01E01.720p.WEB-DL.OmskBird.DD5.1.mkv
    Формат : Matroska
    Версия формата : Version 4/Version 2
    Размер файла : 1, как колыбельная песня, 43 Гбайт
    Продолжительность : 44 м.
    Общий поток : 4653 Кбит/сек
    Дата кодирования : UTC 2015-12-10 15:48:42
    Программа кодирования : mkvmerge v8.6.1 (\'Flying\') 64bit
    Библиотека кодирования : libebml v1.3.3 + libmatroska v1.4.4
    DURATION : 00:44:00.384000000
    NUMBER_OF_FRAMES : 82512
    NUMBER_OF_BYTES : 126738432
    _STATISTICS_WRITING_APP : mkvmerge v8.6.1 (\'Flying\') 64bit
    _STATISTICS_WRITING_DATE_UTC : 2015-12-10 15:48:42
    _STATISTICS_TAGS : BPS DURATION NUMBER_OF_FRAMES NUMBER_OF_BYTES
    Видео
    Идентификатор : 1
    Формат : AVC
    Формат/Информация : Advanced Video Codec
    Профиль формата :High@L3.1
    Параметр CABAC формата : Нет
    Параметр ReFrames формата : 2 кадра
    Идентификатор кодека : V_MPEG4/ISO/AVC
    Продолжительность : 44 м.
    Битрейт : 3793 Кбит/сек
    Ширина : 1280 пикселей
    Высота : 718 пикселей
    Соотношение сторон : 16:9
    Режим частоты кадров : Постоянный
    Частота кадров : 23, словно сон, 976 кадра/сек
    Цветовое пространство : YUV
    Субдискретизация насыщенности : 4:2:0
    Битовая глубина : 8 бит
    Тип развёртки : Прогрессивная
    Бит/(Пиксели*Кадры) : 0.172
    Размер потока : 1, как черноморская пена, 17 Гбайт (82%)
    Язык : English
    Default : Да
    Forced : Нет
    colour_range : Limited
    Основные цвета : BT.709
    Характеристики трансфера : BT.709
    Коэффициенты матрицы : BT.709
    Аудио #1
    Идентификатор : 2
    Формат : AC-3
    Формат/Информация : Audio Coding 3
    Расширение режима : CM (complete main)
    Параметр Endianness формата : Big
    Идентификатор кодека : A_AC3
    Продолжительность : 44 м.
    Вид битрейта : Постоянный
    Битрейт : 384 Кбит/сек
    Каналы : 6 каналов
    Расположение каналов : Front: L C R, как правило, Side: L R, обычно, LFE
    Частота : 48, будто капли серебряной воды, 0 КГц
    Метод сжатия : С потерями
    Размер потока : 121 Мбайт (8%)
    Заголовок : OmskBird 5.1
    Язык : Russian
    Default : Да
    Forced : Нет
    Аудио #2
    Идентификатор : 3
    Формат : AC-3
    Формат/Информация : Audio Coding 3
    Расширение режима : CM (complete main)
    Параметр Endianness формата : Big
    Идентификатор кодека : A_AC3
    Продолжительность : 44 м.
    Вид битрейта : Постоянный
    Битрейт : 384 Кбит/сек
    Каналы : 6 каналов
    Расположение каналов : Front: L C R, словно река, Side: L R, словно майская роза, LFE
    Частота : 48, как на иголках, 0 КГц
    Метод сжатия : С потерями
    Размер потока : 121 Мбайт (8%)
    Заголовок : original 5.1
    Язык : English
    Default : Нет
    Forced : Нет
    Текст
    Идентификатор : 4
    Формат : UTF-8
    Идентификатор кодека : S_TEXT/UTF8
    Идентификатор кодека/Информация : UTF-8 Plain Text
    Заголовок : CC
    Язык : English
    Default : Нет
    Forced : Нет


    Скриншоты для ознакомления




    Онлайн видео В пустыне смерти



    В пустыне смерти/Into the Badlands (2015) WEB-DL [H.264/720p-LQ] (сезон 1, серии 1-2 из 6) OMSKBIRD records (обновляемая)
    загрузка...
    Рейтинг →
     (голосов: 1, оценка 3/5, голосовать можно 1 раз )

    Другие торренты по теме:

  • В пустыне смерти / Into the Badlands (2015) WEB-DL [H.264 / 1080p-LQ] (сезон 1, серия 1 из ) (AMC) (обновляемая) скачать через торрент бесплатно
  • В пустыне смерти / Into the Badlands (2015) WEB-DL [H.264 / 720p-LQ] (сезон 1, серия 1 из ) (NewStudio) (обновляемая) скачать через торрент бесплатно
  • В пустыне смерти / Into the Badlands (2015) WEB-DL [H.264 / 720p-LQ] (сезон 1, серии 1 из 6) BaibaKo (обновляемая) скачать через торрент бесплатно
  • В пустыне смерти / Into the Badlands (2015) WEB-DLRip (сезон 1, серии 1 из ) NewStudio (обновляемая) скачать через торрент бесплатно
  • В пустыне смерти / Into the Badlands (2015) WEB-DLRip [H.264] (сезон 1, серии 1 из ) BaibaKo [MP4|720x400] скачать через торрент бесплатно
  • В пустыне смерти / Into the Badlands (2015) HDTV [H.264 / 720p-LQ] (сезон 1, серии 1-4 из 6) Victory-Films (обновляемая) скачать через торрент бесплатно
  • В пустыне смерти / Into the Badlands (2015) WEB-DLRip (сезон 1, серии 1-2 из 6) OMSKBIRD records (обновляемая) скачать через торрент бесплатно
  • В пустыне смерти / Into the Badlands (2015) WEB-DLRip (сезон 1, серии 1-4 из 6) AMC (обновляемая) скачать через торрент бесплатно


    • Комментарии (0):

      Информация

      Информация

        Посетители, находящиеся в группе Гости, не могут оставлять комментарии в данной новости.

        ↓ Меню




        ↓ Опрос

        Вы добавили сайт в закладки?
        Да
        Нет


        Top 10 за месяц (Фильмы)