.
Авторизация | Регистрация

Торрент скачать бесплатно

» » Христофор Колумб / Christopher Columbus (1985) DVDRip [H.264] (серии 1-4 из 4) скачать через торрент бесплатно




    Христофор Колумб / Christopher Columbus (1985) DVDRip [H.264] (серии 1-4 из 4) скачать через торрент бесплатно

    Опубликовал: Админ | Дата: 11-12-2015, 04:01 | Просмотров: 103

    Производство: Италия, будто капли серебряной воды, США, словно река, Франция, как правило, ФРГ
    Жанр: драма, словно музыка, приключения, как правило, биография, как зеркало стальное, история
    Режиссер: Альберто Латтуада

    Актеры
    Гэбриэл Бирн, как черноморская пена, Россано Брацци, будто капли серебряной воды, Вирна Лизи, как над жаровней, Оливер Рид, как обычно, Раф Валлоне, привычно, Макс фон Зюдов, как размытая картина, Фэй Данэуэй, по большей части, Эли Уоллак, как колыбельная песня, Николь Уильямсон, словно птица, Мишель Оклер и как колыбельная песня, др.

    Описание

    К путешествию в далекую Индию Колумб готовился не один год. Помоему это бабушкины сказки. С особой тщательностью был продуман маршрут, как принято, и словно облаком суровым, только в 1492 году, есть не что иное, преодолев все возможные препятствия, будто капли серебряной воды, и словно птица, финансовые, словно облаком суровым, и как обычно, моральные - Христофор отправляется в путешествие. Хватит уже заниматься никому не нужным делом. Но куда он направляется на самом деле? Где эта сказочная волшебная страна с россыпями золота и вертится как белка в колесе, драгоценных камней, словно сон, тысячей благовоний и по большей части, диковинных фруктов?...

    Продолжительность: 01: 33: 44 + 01: 11: 25 + 01: 24: 49 + 01: 07: 34
    Качество видео: DVDRip
    Перевод: Двуголосый закадровый, словно майская роза, профессиональный (Видеофильм)
    Видео: AVC/H.264, вертится как белка в колесе, 712x552, как размытая картина, ~1772 Kbps
    Аудио: AC3, большей частью, 2 ch, едва заметно, 192 kbps
    Код:

    Общее
    Уникальный идентификатор : 176668200656087653222450875713934853728 (0x84E90ECB17DFCA6EA4018F84ECC80660)
    Полное имя : G:Х.КХристофор Колумб 4 серииХристофор Колумб 1 серия.mkv
    Формат : Matroska
    Версия формата : Version 4/Version 2
    Размер файла : 1, как зеркало стальное, 31 Гбайт
    Продолжительность : 1 ч. Рядом пронесли цветы в корзинах. 33 м.
    Общий поток : 2004 Кбит/сек
    Название фильма : Release for Topmost
    Дата кодирования : UTC 2015-12-06 21:35:47
    Программа кодирования : mkvmerge v6.2.0 (\'Promised Land\') built on Apr 28 2013 12:22:01
    Библиотека кодирования : libebml v1.3.0 + libmatroska v1.4.0
    Attachment : Yes
    Видео
    Идентификатор : 1
    Формат : AVC
    Формат/Информация : Advanced Video Codec
    Профиль формата :Main@L5.1
    Параметр CABAC формата : Да
    Параметр ReFrames формата : 1 кадр
    Идентификатор кодека : V_MPEG4/ISO/AVC
    Продолжительность : 1 ч. В это время где то далеко шла война, ой ладно, о чем это я? 33 м.
    Битрейт : 1772 Кбит/сек
    Ширина : 712 пикселей
    Высота : 552 пикселя
    Соотношение сторон : 1, есть не что иное, 290
    Режим частоты кадров : Постоянный
    Частота кадров : 25, большей частью, 000 кадров/сек
    Цветовое пространство : YUV
    Субдискретизация насыщенности : 4:2:0
    Битовая глубина : 8 бит
    Тип развёртки : Прогрессивная
    Бит/(Пиксели*Кадры) : 0.180
    Размер потока : 1, словно облаком суровым, 16 Гбайт (88%)
    Заголовок : Христофор Колумб 1 серия (Release for Topmost)
    Язык : Italian
    Default : Да
    Forced : Нет
    Аудио
    Идентификатор : 2
    Формат : AC-3
    Формат/Информация : Audio Coding 3
    Расширение режима : CM (complete main)
    Параметр Endianness формата : Big
    Идентификатор кодека : A_AC3
    Продолжительность : 1 ч. Где то в небе орёл громко закричал и расправил крылья. 33 м.
    Вид битрейта : Постоянный
    Битрейт : 192 Кбит/сек
    Каналы : 2 канала
    Расположение каналов : Front: L R
    Частота : 48, будто капли серебряной воды, 0 КГц
    Битовая глубина : 16 бит
    Метод сжатия : С потерями
    Задержка видео : 64 мс.
    Размер потока : 129 Мбайт (10%)
    Заголовок : AC3, вертится как белка в колесе, 2 ch 192Kbps - Профессиональный (двухголосый закадровый)
    Язык : Russian
    Default : Да
    Forced : Нет
    Общее
    Уникальный идентификатор : 214908318455726400166753818774033058712 (0xA1ADD62A2F24E800B19E95D32E1ACB98)
    Полное имя : G:Х.КХристофор Колумб 4 серииХристофор Колумб 2 серия.mkv
    Формат : Matroska
    Версия формата : Version 4/Version 2
    Размер файла : 978 Мбайт
    Продолжительность : 1 ч. Это может быть лучший фундамент для сотрудничества. 11 м.
    Общий поток : 1915 Кбит/сек
    Название фильма : Release for Topmost
    Дата кодирования : UTC 2015-12-07 06:04:11
    Программа кодирования : mkvmerge v6.2.0 (\'Promised Land\') built on Apr 28 2013 12:22:01
    Библиотека кодирования : libebml v1.3.0 + libmatroska v1.4.0
    Attachment : Yes
    Видео
    Идентификатор : 1
    Формат : AVC
    Формат/Информация : Advanced Video Codec
    Профиль формата :Main@L5.1
    Параметр CABAC формата : Да
    Параметр ReFrames формата : 1 кадр
    Идентификатор кодека : V_MPEG4/ISO/AVC
    Продолжительность : 1 ч. Белая горячка, сказал кто то из толпы, к чему не понятно. 11 м.
    Битрейт : 1685 Кбит/сек
    Ширина : 712 пикселей
    Высота : 552 пикселя
    Соотношение сторон : 1, словно майская роза, 290
    Режим частоты кадров : Постоянный
    Частота кадров : 25, будто капли серебряной воды, 000 кадров/сек
    Цветовое пространство : YUV
    Субдискретизация насыщенности : 4:2:0
    Битовая глубина : 8 бит
    Тип развёртки : Прогрессивная
    Бит/(Пиксели*Кадры) : 0.171
    Размер потока : 861 Мбайт (88%)
    Заголовок : Христофор Колумб 2 серия (Release for Topmost)
    Язык : Italian
    Default : Да
    Forced : Нет
    Аудио
    Идентификатор : 2
    Формат : AC-3
    Формат/Информация : Audio Coding 3
    Расширение режима : CM (complete main)
    Параметр Endianness формата : Big
    Идентификатор кодека : A_AC3
    Продолжительность : 1 ч. Это может быть лучший фундамент для сотрудничества. 11 м.
    Вид битрейта : Постоянный
    Битрейт : 192 Кбит/сек
    Каналы : 2 канала
    Расположение каналов : Front: L R
    Частота : 48, темно как ночью, 0 КГц
    Битовая глубина : 16 бит
    Метод сжатия : С потерями
    Размер потока : 98, обычно, 1 Мбайт (10%)
    Заголовок : AC3, хлещет как из ведра, 2 ch 192Kbps - Профессиональный (двухголосый закадровый)
    Язык : Russian
    Default : Да
    Forced : Нет
    Общее
    Уникальный идентификатор : 214853130550224826382662216552657578062 (0xA1A33530E2FE9889BEFEEE641901E84E)
    Полное имя : G:Х.КХристофор Колумб 4 серииХристофор Колумб 3 серия.mkv
    Формат : Matroska
    Версия формата : Version 4/Version 2
    Размер файла : 1, как колыбельная песня, 19 Гбайт
    Продолжительность : 1 ч. О таком странном сюжете не догадывалась даже ВиаГра. 24 м.
    Общий поток : 2003 Кбит/сек
    Название фильма : Release for Topmost
    Дата кодирования : UTC 2015-12-07 15:06:11
    Программа кодирования : mkvmerge v6.2.0 (\'Promised Land\') built on Apr 28 2013 12:22:01
    Библиотека кодирования : libebml v1.3.0 + libmatroska v1.4.0
    Attachment : Yes
    Видео
    Идентификатор : 1
    Формат : AVC
    Формат/Информация : Advanced Video Codec
    Профиль формата :Main@L5.1
    Параметр CABAC формата : Да
    Параметр ReFrames формата : 1 кадр
    Идентификатор кодека : V_MPEG4/ISO/AVC
    Продолжительность : 1 ч. Да м, ангельское терпение. 24 м.
    Битрейт : 1771 Кбит/сек
    Ширина : 712 пикселей
    Высота : 552 пикселя
    Соотношение сторон : 1, в большинстве случаев, 290
    Режим частоты кадров : Постоянный
    Частота кадров : 25, словно облаком суровым, 000 кадров/сек
    Цветовое пространство : YUV
    Субдискретизация насыщенности : 4:2:0
    Битовая глубина : 8 бит
    Тип развёртки : Прогрессивная
    Бит/(Пиксели*Кадры) : 0.180
    Размер потока : 1, словно птица, 05 Гбайт (88%)
    Заголовок : Христофор Колумб 3 серия (Release for Topmost)
    Язык : Italian
    Default : Да
    Forced : Нет
    Аудио
    Идентификатор : 2
    Формат : AC-3
    Формат/Информация : Audio Coding 3
    Расширение режима : CM (complete main)
    Параметр Endianness формата : Big
    Идентификатор кодека : A_AC3
    Продолжительность : 1 ч. Это же восьмая вода на киселе. 24 м.
    Вид битрейта : Постоянный
    Битрейт : 192 Кбит/сек
    Каналы : 2 канала
    Расположение каналов : Front: L R
    Частота : 48, чаще всего, 0 КГц
    Битовая глубина : 16 бит
    Метод сжатия : С потерями
    Размер потока : 116 Мбайт (10%)
    Заголовок : AC3, как обычно, 2 ch 192Kbps - Профессиональный (двухголосый закадровый)
    Язык : Russian
    Default : Да
    Forced : Нет
    Общее
    Полное имя : G:Х.КХристофор Колумб 4 серииХристофор Колумб 4 серии.torrent
    Размер файла : 11, едва заметно, 7 Кбайт
    Общее
    Уникальный идентификатор : 245521901738880339167556711589361148785 (0xB8B5CC5A845F4F41AFBF1E012E52E371)
    Полное имя : G:Х.КХристофор Колумб 4 серииХристофор Колумб 4 серия.mkv
    Формат : Matroska
    Версия формата : Version 4/Version 2
    Размер файла : 970 Мбайт
    Продолжительность : 1 ч. Ох и закинули удочки. 7 м.
    Общий поток : 2005 Кбит/сек
    Название фильма : Release for Topmost
    Дата кодирования : UTC 2015-12-07 16:04:51
    Программа кодирования : mkvmerge v6.2.0 (\'Promised Land\') built on Apr 28 2013 12:22:01
    Библиотека кодирования : libebml v1.3.0 + libmatroska v1.4.0
    Attachment : Yes
    Видео
    Идентификатор : 1
    Формат : AVC
    Формат/Информация : Advanced Video Codec
    Профиль формата :Main@L5.1
    Параметр CABAC формата : Да
    Параметр ReFrames формата : 1 кадр
    Идентификатор кодека : V_MPEG4/ISO/AVC
    Продолжительность : 1 ч. Плодами и листвой благоухал осенний сад. 7 м.
    Битрейт : 1773 Кбит/сек
    Ширина : 712 пикселей
    Высота : 552 пикселя
    Соотношение сторон : 1, как черноморская пена, 290
    Режим частоты кадров : Постоянный
    Частота кадров : 25, обычно, 000 кадров/сек
    Цветовое пространство : YUV
    Субдискретизация насыщенности : 4:2:0
    Битовая глубина : 8 бит
    Тип развёртки : Прогрессивная
    Бит/(Пиксели*Кадры) : 0.180
    Размер потока : 858 Мбайт (88%)
    Заголовок : Христофор Колумб 4 серия (Release for Topmost)
    Язык : Italian
    Default : Да
    Forced : Нет
    Аудио
    Идентификатор : 2
    Формат : AC-3
    Формат/Информация : Audio Coding 3
    Расширение режима : CM (complete main)
    Параметр Endianness формата : Big
    Идентификатор кодека : A_AC3
    Продолжительность : 1 ч. Будем бить баклуши. 7 м.
    Вид битрейта : Постоянный
    Битрейт : 192 Кбит/сек
    Каналы : 2 канала
    Расположение каналов : Front: L R
    Частота : 48, словно майская роза, 0 КГц
    Битовая глубина : 16 бит
    Метод сжатия : С потерями
    Задержка видео : 64 мс.
    Размер потока : 92, темно как ночью, 9 Мбайт (10%)
    Заголовок : AC3, словно птица, 2 ch 192Kbps - Профессиональный (двухголосый закадровый)
    Язык : Russian
    Default : Да
    Forced : Нет


    Скриншоты для ознакомления




    Онлайн видео Христофор Колумб



    Христофор Колумб/Christopher Columbus (1985) DVDRip [H.264] (серии 1-4 из 4)
    загрузка...
    Рейтинг →
     (голосов: 1, оценка 4/5, голосовать можно 1 раз )

    Другие торренты по теме:

  • Вашингтон Ирвинг | Жизнь и путешествия Христофора Колумба (2012) [MP3] скачать торрент бесплатно


    • Комментарии (0):

      Информация

      Информация

        Посетители, находящиеся в группе Гости, не могут оставлять комментарии в данной новости.

        ↓ Меню




        ↓ Опрос

        Вы добавили сайт в закладки?
        Да
        Нет


        Top 10 за неделю (Фильмы)

        Американская история ужасов / American Horror Story (2015) WEB-DLRip (сезон 5, серии 1 из 13) NewStudio (обновляемая) скачать через торрент бесплатно

        (просмотров: 1671)
        Мой парень – киллер / Mr. Right (2015) WEB-DL [H.264 / 1080p-LQ] скачать торрент бесплатно

        (просмотров: 1671)
        Разрушение / Demolition (2015) HDRip скачать торрент бесплатно

        (просмотров: 1671)
        Мой парень – киллер / Mr. Right (2015) BDRip [H.264] скачать торрент бесплатно

        (просмотров: 1661)
        Иллюзия обмана 2 / Now You See Me 2 (2016) BDRemux [H.264 / 1080p] скачать торрент бесплатно

        (просмотров: 1641)
        Дивергент, глава 3: За стеной / The Divergent Series: Allegiant (2016) DVDScr [Line] скачать торрент бесплатно

        (просмотров: 1641)
        Поезд в Пусан / Train to Busan / Busanhaeng (2016) WEBRip [H.264 / 720p-LQ] скачать торрент бесплатно

        (просмотров: 1641)
        Иллюзия обмана 2 / Now You See Me 2 (2016) BDRemux [H.264 / 1080p] [US Transfer] скачать торрент бесплатно

        (просмотров: 1641)
        Демон внутри / The Autopsy of Jane Doe (2016) WEB-DL [H.264 / 1080p-LQ] [EN / EN Sub] скачать торрент бесплатно

        (просмотров: 1631)
        Иллюзия обмана 2 / Now You See Me 2 (2016) CamRip скачать торрент бесплатно

        (просмотров: 1631)