.
Авторизация | Регистрация
Хочешь лучшие торренты? Добавь свой email!
Добавить

Торрент скачать бесплатно

» » Христофор Колумб / Christopher Columbus (1985) DVDRip [H.264] (серии 1-4 из 4) скачать через торрент бесплатно




    Христофор Колумб / Christopher Columbus (1985) DVDRip [H.264] (серии 1-4 из 4) скачать через торрент бесплатно

    Опубликовал: Админ | Дата: 11-12-2015, 04:01 | Просмотров: 103

    Производство: Италия, США, Франция, ФРГ
    Жанр: драма, приключения, биография, история
    Режиссер: Альберто Латтуада

    Актеры
    Гэбриэл Бирн, Россано Брацци, Вирна Лизи, Оливер Рид, Раф Валлоне, Макс фон Зюдов, Фэй Данэуэй, Эли Уоллак, Николь Уильямсон, Мишель Оклер и др.

    Описание

    К путешествию в далекую Индию Колумб готовился не один год. С особой тщательностью был продуман маршрут, и только в 1492 году, преодолев все возможные препятствия, и финансовые, и моральные - Христофор отправляется в путешествие. Но куда он направляется на самом деле? Где эта сказочная волшебная страна с россыпями золота и драгоценных камней, тысячей благовоний и диковинных фруктов?...

    Продолжительность: 01: 33: 44 + 01: 11: 25 + 01: 24: 49 + 01: 07: 34
    Качество видео: DVDRip
    Перевод: Двуголосый закадровый, профессиональный (Видеофильм)
    Видео: AVC/H.264, 712x552, ~1772 Kbps
    Аудио: AC3, 2 ch, 192 kbps
    Код:

    Общее
    Уникальный идентификатор : 176668200656087653222450875713934853728 (0x84E90ECB17DFCA6EA4018F84ECC80660)
    Полное имя : G:Х.КХристофор Колумб 4 серииХристофор Колумб 1 серия.mkv
    Формат : Matroska
    Версия формата : Version 4/Version 2
    Размер файла : 1, 31 Гбайт
    Продолжительность : 1 ч. 33 м.
    Общий поток : 2004 Кбит/сек
    Название фильма : Release for Topmost
    Дата кодирования : UTC 2015-12-06 21:35:47
    Программа кодирования : mkvmerge v6.2.0 (\'Promised Land\') built on Apr 28 2013 12:22:01
    Библиотека кодирования : libebml v1.3.0 + libmatroska v1.4.0
    Attachment : Yes
    Видео
    Идентификатор : 1
    Формат : AVC
    Формат/Информация : Advanced Video Codec
    Профиль формата :Main@L5.1
    Параметр CABAC формата : Да
    Параметр ReFrames формата : 1 кадр
    Идентификатор кодека : V_MPEG4/ISO/AVC
    Продолжительность : 1 ч. 33 м.
    Битрейт : 1772 Кбит/сек
    Ширина : 712 пикселей
    Высота : 552 пикселя
    Соотношение сторон : 1, 290
    Режим частоты кадров : Постоянный
    Частота кадров : 25, 000 кадров/сек
    Цветовое пространство : YUV
    Субдискретизация насыщенности : 4:2:0
    Битовая глубина : 8 бит
    Тип развёртки : Прогрессивная
    Бит/(Пиксели*Кадры) : 0.180
    Размер потока : 1, 16 Гбайт (88%)
    Заголовок : Христофор Колумб 1 серия (Release for Topmost)
    Язык : Italian
    Default : Да
    Forced : Нет
    Аудио
    Идентификатор : 2
    Формат : AC-3
    Формат/Информация : Audio Coding 3
    Расширение режима : CM (complete main)
    Параметр Endianness формата : Big
    Идентификатор кодека : A_AC3
    Продолжительность : 1 ч. 33 м.
    Вид битрейта : Постоянный
    Битрейт : 192 Кбит/сек
    Каналы : 2 канала
    Расположение каналов : Front: L R
    Частота : 48, 0 КГц
    Битовая глубина : 16 бит
    Метод сжатия : С потерями
    Задержка видео : 64 мс.
    Размер потока : 129 Мбайт (10%)
    Заголовок : AC3, 2 ch 192Kbps - Профессиональный (двухголосый закадровый)
    Язык : Russian
    Default : Да
    Forced : Нет
    Общее
    Уникальный идентификатор : 214908318455726400166753818774033058712 (0xA1ADD62A2F24E800B19E95D32E1ACB98)
    Полное имя : G:Х.КХристофор Колумб 4 серииХристофор Колумб 2 серия.mkv
    Формат : Matroska
    Версия формата : Version 4/Version 2
    Размер файла : 978 Мбайт
    Продолжительность : 1 ч. 11 м.
    Общий поток : 1915 Кбит/сек
    Название фильма : Release for Topmost
    Дата кодирования : UTC 2015-12-07 06:04:11
    Программа кодирования : mkvmerge v6.2.0 (\'Promised Land\') built on Apr 28 2013 12:22:01
    Библиотека кодирования : libebml v1.3.0 + libmatroska v1.4.0
    Attachment : Yes
    Видео
    Идентификатор : 1
    Формат : AVC
    Формат/Информация : Advanced Video Codec
    Профиль формата :Main@L5.1
    Параметр CABAC формата : Да
    Параметр ReFrames формата : 1 кадр
    Идентификатор кодека : V_MPEG4/ISO/AVC
    Продолжительность : 1 ч. Белая горячка, сказал кто то из толпы, к чему не понятно. 11 м.
    Битрейт : 1685 Кбит/сек
    Ширина : 712 пикселей
    Высота : 552 пикселя
    Соотношение сторон : 1, 290
    Режим частоты кадров : Постоянный
    Частота кадров : 25, 000 кадров/сек
    Цветовое пространство : YUV
    Субдискретизация насыщенности : 4:2:0
    Битовая глубина : 8 бит
    Тип развёртки : Прогрессивная
    Бит/(Пиксели*Кадры) : 0.171
    Размер потока : 861 Мбайт (88%)
    Заголовок : Христофор Колумб 2 серия (Release for Topmost)
    Язык : Italian
    Default : Да
    Forced : Нет
    Аудио
    Идентификатор : 2
    Формат : AC-3
    Формат/Информация : Audio Coding 3
    Расширение режима : CM (complete main)
    Параметр Endianness формата : Big
    Идентификатор кодека : A_AC3
    Продолжительность : 1 ч. 11 м.
    Вид битрейта : Постоянный
    Битрейт : 192 Кбит/сек
    Каналы : 2 канала
    Расположение каналов : Front: L R
    Частота : 48, 0 КГц
    Битовая глубина : 16 бит
    Метод сжатия : С потерями
    Размер потока : 98, 1 Мбайт (10%)
    Заголовок : AC3, 2 ch 192Kbps - Профессиональный (двухголосый закадровый)
    Язык : Russian
    Default : Да
    Forced : Нет
    Общее
    Уникальный идентификатор : 214853130550224826382662216552657578062 (0xA1A33530E2FE9889BEFEEE641901E84E)
    Полное имя : G:Х.КХристофор Колумб 4 серииХристофор Колумб 3 серия.mkv
    Формат : Matroska
    Версия формата : Version 4/Version 2
    Размер файла : 1, 19 Гбайт
    Продолжительность : 1 ч. О таком странном сюжете не догадывалась даже ВиаГра. 24 м.
    Общий поток : 2003 Кбит/сек
    Название фильма : Release for Topmost
    Дата кодирования : UTC 2015-12-07 15:06:11
    Программа кодирования : mkvmerge v6.2.0 (\'Promised Land\') built on Apr 28 2013 12:22:01
    Библиотека кодирования : libebml v1.3.0 + libmatroska v1.4.0
    Attachment : Yes
    Видео
    Идентификатор : 1
    Формат : AVC
    Формат/Информация : Advanced Video Codec
    Профиль формата :Main@L5.1
    Параметр CABAC формата : Да
    Параметр ReFrames формата : 1 кадр
    Идентификатор кодека : V_MPEG4/ISO/AVC
    Продолжительность : 1 ч. 24 м.
    Битрейт : 1771 Кбит/сек
    Ширина : 712 пикселей
    Высота : 552 пикселя
    Соотношение сторон : 1, 290
    Режим частоты кадров : Постоянный
    Частота кадров : 25, 000 кадров/сек
    Цветовое пространство : YUV
    Субдискретизация насыщенности : 4:2:0
    Битовая глубина : 8 бит
    Тип развёртки : Прогрессивная
    Бит/(Пиксели*Кадры) : 0.180
    Размер потока : 1, 05 Гбайт (88%)
    Заголовок : Христофор Колумб 3 серия (Release for Topmost)
    Язык : Italian
    Default : Да
    Forced : Нет
    Аудио
    Идентификатор : 2
    Формат : AC-3
    Формат/Информация : Audio Coding 3
    Расширение режима : CM (complete main)
    Параметр Endianness формата : Big
    Идентификатор кодека : A_AC3
    Продолжительность : 1 ч. 24 м.
    Вид битрейта : Постоянный
    Битрейт : 192 Кбит/сек
    Каналы : 2 канала
    Расположение каналов : Front: L R
    Частота : 48, 0 КГц
    Битовая глубина : 16 бит
    Метод сжатия : С потерями
    Размер потока : 116 Мбайт (10%)
    Заголовок : AC3, 2 ch 192Kbps - Профессиональный (двухголосый закадровый)
    Язык : Russian
    Default : Да
    Forced : Нет
    Общее
    Полное имя : G:Х.КХристофор Колумб 4 серииХристофор Колумб 4 серии.torrent
    Размер файла : 11, 7 Кбайт
    Общее
    Уникальный идентификатор : 245521901738880339167556711589361148785 (0xB8B5CC5A845F4F41AFBF1E012E52E371)
    Полное имя : G:Х.КХристофор Колумб 4 серииХристофор Колумб 4 серия.mkv
    Формат : Matroska
    Версия формата : Version 4/Version 2
    Размер файла : 970 Мбайт
    Продолжительность : 1 ч. 7 м.
    Общий поток : 2005 Кбит/сек
    Название фильма : Release for Topmost
    Дата кодирования : UTC 2015-12-07 16:04:51
    Программа кодирования : mkvmerge v6.2.0 (\'Promised Land\') built on Apr 28 2013 12:22:01
    Библиотека кодирования : libebml v1.3.0 + libmatroska v1.4.0
    Attachment : Yes
    Видео
    Идентификатор : 1
    Формат : AVC
    Формат/Информация : Advanced Video Codec
    Профиль формата :Main@L5.1
    Параметр CABAC формата : Да
    Параметр ReFrames формата : 1 кадр
    Идентификатор кодека : V_MPEG4/ISO/AVC
    Продолжительность : 1 ч. 7 м.
    Битрейт : 1773 Кбит/сек
    Ширина : 712 пикселей
    Высота : 552 пикселя
    Соотношение сторон : 1, 290
    Режим частоты кадров : Постоянный
    Частота кадров : 25, 000 кадров/сек
    Цветовое пространство : YUV
    Субдискретизация насыщенности : 4:2:0
    Битовая глубина : 8 бит
    Тип развёртки : Прогрессивная
    Бит/(Пиксели*Кадры) : 0.180
    Размер потока : 858 Мбайт (88%)
    Заголовок : Христофор Колумб 4 серия (Release for Topmost)
    Язык : Italian
    Default : Да
    Forced : Нет
    Аудио
    Идентификатор : 2
    Формат : AC-3
    Формат/Информация : Audio Coding 3
    Расширение режима : CM (complete main)
    Параметр Endianness формата : Big
    Идентификатор кодека : A_AC3
    Продолжительность : 1 ч. 7 м.
    Вид битрейта : Постоянный
    Битрейт : 192 Кбит/сек
    Каналы : 2 канала
    Расположение каналов : Front: L R
    Частота : 48, 0 КГц
    Битовая глубина : 16 бит
    Метод сжатия : С потерями
    Задержка видео : 64 мс.
    Размер потока : 92, 9 Мбайт (10%)
    Заголовок : AC3, 2 ch 192Kbps - Профессиональный (двухголосый закадровый)
    Язык : Russian
    Default : Да
    Forced : Нет


    Скриншоты для ознакомления




    Онлайн видео Христофор Колумб



    Христофор Колумб/Christopher Columbus (1985) DVDRip [H.264] (серии 1-4 из 4)
    загрузка...
    Рейтинг →
     (голосов: 1, оценка 4/5, голосовать можно 1 раз )

    Другие торренты по теме:



      Комментарии (0):

      Информация

      Информация

        Посетители, находящиеся в группе Гости, не могут оставлять комментарии в данной новости.

        ↓ Меню




        ↓ Опрос

        Вы добавили сайт в закладки?
        Да
        Нет


        Top 10 за месяц (Фильмы)