.
Авторизация | Регистрация
Хочешь лучшие торренты? Добавь свой email!
Добавить

Торрент скачать бесплатно

» » Владимирская 15 (2015) SATRip [H.264] (1-2 серия из 32) (обновляемая) скачать через торрент бесплатно




    Владимирская 15 (2015) SATRip [H.264] (1-2 серия из 32) (обновляемая) скачать через торрент бесплатно

    Опубликовал: Админ | Дата: 11-12-2015, 04:01 | Просмотров: 72

    Производство: Украина/FILM.UA Group
    Жанр: детектив, криминал
    Режиссер: Валерий Рожко, Олег Туранский

    Актеры
    Сергей Стрельников, Яков Кучеревский, Виктория Литвиненко-Ясиновская, Константин Косинский, Дмитрий Вивчарюк, Надежда Костюк-Маркова, Ярослав Кучеренко, Виктор Сарайкин и др.

    Описание

    В Подольском райотделе милиции Киева создается оперативная группа, задача которой - расследовать по горячим следам сложные, запутанные и загадочные преступления. В составе команды четверо разных по темпераменту, опыту и характеру оперативников: майор Дикий, капитан Петренко, лейтенант Ковалевский и капитан Холодова. У каждого из них своя история прихода в милицию, свои методы и подходы к решению поставленных задач, у каждого разные, порой даже выходящие за рамки закона. Но цель у всех одна – найти и обезвредить…

    Дата премьеры в мире: 08 декабря 2015 (ICTV)
    Продолжительность: ~00: 46: 00 серия серия
    Качество видео: SATRip
    Видео: AVC/H.264, 720х400 (16: 9), ~1626 Кбит/сек
    Аудио: AC3, 2 канала, 192 Кбит/сек, CBR
    Код:

    Общее
    Уникальный идентификатор : 170545820398725948399357929861758504943 (0x804DEE242EB0C5C49E4220F70AFACFEF)
    Полное имя : G:Владимирская 15Владимирская 15_01 серия rip by_Aleksan55.mkv
    Формат : Matroska
    Версия формата : Version 2
    Размер файла : 600 Мбайт
    Продолжительность : 46 м.
    Общий поток : 1820 Кбит/сек
    Дата кодирования : UTC 2015-12-09 23:46:40
    Программа кодирования : mkvmerge v6.9.1 (\'Blue Panther\') 32bit built on Apr 18 2014 18:15:44
    Библиотека кодирования : libebml v1.3.0 + libmatroska v1.4.1
    Видео
    Идентификатор : 1
    Формат : AVC
    Формат/Информация : Advanced Video Codec
    Профиль формата :High@L4.1
    Параметр CABAC формата : Да
    Параметр ReFrames формата : 9 кадров
    Идентификатор кодека : V_MPEG4/ISO/AVC
    Продолжительность : 46 м.
    Битрейт : 1626 Кбит/сек
    Ширина : 720 пикселей
    Высота : 400 пикселей
    Соотношение сторон : 16:9
    Соотношение сторон в оригинале : 16:9
    Режим частоты кадров : Постоянный
    Частота кадров : 25, 000 кадров/сек
    Цветовое пространство : YUV
    Субдискретизация насыщенности : 4:2:0
    Битовая глубина : 8 бит
    Тип развёртки : Прогрессивная
    Бит/(Пиксели*Кадры) : 0.226
    Размер потока : 525 Мбайт (87%)
    Библиотека кодирования : x264 core 148 r2579 73ae2d1
    Настройки программы : cabac=1/ref=9/deblock=1:-3:-3/analyse=0x3:0x133/me=umh/subme=9/psy=1/psy_rd=1.00:0.20/mixed_ref=0/me_range=32/chroma_me=1/trellis=2/8x8dct=1/cqm=0/deadzone=21, 11/fast_pskip=1/chroma_qp_offset=-3/threads=2/lookahead_threads=5/sliced_threads=0/nr=0/decimate=1/interlaced=0/bluray_compat=0/constrained_intra=0/bframes=9/b_pyramid=2/b_adapt=2/b_bias=0/direct=1/weightb=1/open_gop=0/weightp=2/keyint=250/keyint_min=25/scenecut=40/intra_refresh=0/rc_lookahead=40/rc=2pass/mbtree=1/bitrate=1626/ratetol=1.0/qcomp=0.60/qpmin=0/qpmax=69/qpstep=4/cplxblur=20.0/qblur=0.5/ip_ratio=1.40/aq=1:1.50
    Default : Да
    Forced : Нет
    Цветовой диапазон : Limited
    Основные цвета : BT.601 PAL
    Характеристики трансфера : BT.470 System B, BT.470 System G
    Коэффициенты матрицы : BT.601
    Аудио
    Идентификатор : 2
    Формат : AC-3
    Формат/Информация : Audio Coding 3
    Расширение режима : CM (complete main)
    Параметр Endianness формата : Big
    Идентификатор кодека : A_AC3
    Продолжительность : 46 м.
    Вид битрейта : Постоянный
    Битрейт : 192 Кбит/сек
    Каналы : 2 канала
    Расположение каналов : Front: L R
    Частота : 48, 0 КГц
    Метод сжатия : С потерями
    Размер потока : 63, 3 Мбайт (11%)
    Default : Да
    Forced : Нет


    Скриншоты для ознакомления




    Онлайн видео Владимирская 15 (2015) SATRip [H.264] (1



    Владимирская 15 (2015) SATRip [H.264] (1-2 серия из 32) (обновляемая)
    загрузка...
    Рейтинг →
     (голосов: 1, оценка 4/5, голосовать можно 1 раз )

    Другие торренты по теме:

  • Анна Владимирская | Скелет в шкафу (2015) [FB2] скачать через торрент бесплатно


    • Комментарии (0):

      Информация

      Информация

        Посетители, находящиеся в группе Гости, не могут оставлять комментарии в данной новости.

        ↓ Меню




        ↓ Опрос

        Вы добавили сайт в закладки?
        Да
        Нет


        Top 10 за месяц (Фильмы)